<?xml version="1.0" standalone="no"?>
<!DOCTYPE svg PUBLIC "-//W3C//DTD SVG 1.1//EN" "http://www.w3.org/Graphics/SVG/1.1/DTD/svg11.dtd" >
<svg xmlns="http://www.w3.org/2000/svg">
<metadata>Generated by IcoMoon</metadata>
<defs>
<font id="icomoon" horiz-adv-x="1024">
<font-face units-per-em="1024" ascent="960" descent="-64" />
<missing-glyph horiz-adv-x="1024" />
<glyph unicode="&#x20;" horiz-adv-x="512" d="" />
<glyph unicode="&#xe900;" glyph-name="basketball" d="M544 799.658c89.925-3.847 171.491-39.965 233.411-97.068v0c-62.091-67.562-101.24-156.543-105.097-254.591h-128.314v351.658zM512 799.658v-351.658h-128.314c-3.857 98.048-43.006 187.029-105.097 254.591v0c61.92 57.103 143.486 93.221 233.411 97.068zM544 64.342v351.658h128.314c3.857-98.048 43.006-187.029 105.097-254.591v0c-61.92-57.103-143.486-93.221-233.411-97.068zM512 64.342c-89.925 3.847-171.491 39.965-233.411 97.068 62.091 67.562 101.24 156.543 105.097 254.591h128.314v-351.658zM800 679.875c56.287-61.73 91.843-142.692 95.658-231.875v0h-191.317c3.815 89.183 39.371 170.144 95.658 231.875v0 0zM800 184.125v0 0c-56.287 61.73-91.843 142.692-95.658 231.875h191.317c-3.815-89.183-39.371-170.144-95.658-231.875zM160.342 448c3.815 89.183 39.371 170.144 95.658 231.875v0c56.287-61.73 91.843-142.692 95.658-231.875h-191.317zM160.342 416h191.317c-3.815-89.183-39.371-170.144-95.658-231.875-56.287 61.73-91.843 142.692-95.658 231.875zM528 32c220.914 0 400 179.086 400 400s-179.086 400-400 400c-220.914 0-400-179.086-400-400s179.086-400 400-400v0z" />
<glyph unicode="&#xe901;" glyph-name="basketball2" d="M511.686 32.628v383.686h-128.314c-4.306-109.458-52.596-207.615-127.686-277.287 67.732-62.845 157.269-102.515 256-106.399v0zM211.218 187.644c-49.322 63.702-79.836 142.7-83.218 228.67h223.344c-4.303-100.588-48.984-190.717-118.247-254.591 0.433-0.471-14.558 16.465-21.879 25.921v0zM822.274 161.723c62.091 67.562 101.24 156.543 105.097 254.591v0h-223.344c4.303-100.588 48.984-190.717 118.247-254.591v0 0zM799.686 139.027c-67.732-62.845-157.269-102.515-256-106.399v0 383.686h128.314c4.306-109.458 52.596-207.615 127.686-277.287v0 0zM822.274 702.905c62.091-67.562 101.24-156.543 105.097-254.591v0h-223.344c4.303 100.588 48.984 190.717 118.247 254.591v0 0zM799.686 725.601c-67.732 62.845-157.269 102.515-256 106.399v-383.686h128.314c4.306 109.458 52.596 207.615 127.686 277.287v0zM233.097 702.905c-62.091-67.562-101.24-156.543-105.097-254.591v0h223.344c-4.303 100.588-48.984 190.717-118.247 254.591v0zM255.686 725.601c67.732 62.845 157.269 102.515 256 106.399v0-383.686h-128.314c-4.306 109.458-52.596 207.615-127.686 277.287v0z" />
<glyph unicode="&#xe902;" glyph-name="baseball" d="M278.589 161.409v0c8.768 9.541 17.079 19.509 24.898 29.87l23.542-17.104 18.809 25.889-24.105 17.514c15.885 24.968 29.077 51.816 39.168 80.136l29.764-9.671 9.889 30.434-30.136 9.792c7.536 28.141 12.079 57.506 13.268 87.733h32.314v32h-32.314c-1.189 30.227-5.732 59.592-13.268 87.733l30.136 9.792-9.889 30.434-29.764-9.671c-10.091 28.32-23.283 55.168-39.168 80.136l24.105 17.514-18.809 25.889-23.542-17.104c-7.819 10.36-16.129 20.329-24.898 29.87 65.573 60.471 153.179 97.409 249.411 97.409s183.838-36.938 249.411-97.409c-8.768-9.541-17.079-19.509-24.898-29.87l-23.542 17.104-18.809-25.889 24.105-17.514c-15.885-24.968-29.077-51.816-39.168-80.136l-29.764 9.671-9.889-30.434 30.136-9.792c-7.536-28.141-12.079-57.506-13.268-87.733h-32.314v-32h32.314c1.189-30.227 5.732-59.592 13.268-87.733l-30.136-9.792 9.889-30.434 29.764 9.671c10.091-28.32 23.283-55.168 39.168-80.136l-24.105-17.514 18.809-25.889 23.542 17.104c7.819-10.36 16.129-20.329 24.898-29.87v0c-65.573-60.471-153.179-97.409-249.411-97.409s-183.838 36.938-249.411 97.409zM256 184.125c-59.635 65.402-96 152.392-96 247.875s36.365 182.472 96 247.875c7.582-8.316 14.789-16.98 21.592-25.967l-28.229-20.509 18.809-25.889 27.615 20.063c13.979-22.238 25.644-46.078 34.659-71.181l-31.082-10.099 9.889-30.434 30.679 9.968c6.573-25.002 10.582-51.044 11.727-77.827h-31.658v-32h31.658c-1.146-26.783-5.154-52.825-11.727-77.827v0l-30.679 9.968-9.889-30.434 31.082-10.099c-9.015-25.103-20.68-48.942-34.659-71.181l-27.615 20.063-18.809-25.889 28.229-20.509c-6.803-8.987-14.009-17.651-21.592-25.967v0zM800 184.125v0 0c-7.582 8.316-14.789 16.98-21.592 25.967l28.229 20.509-18.809 25.889-27.615-20.063c-13.979 22.238-25.644 46.078-34.659 71.181l31.082 10.099-9.889 30.434-30.679-9.968c-6.573 25.002-10.582 51.044-11.727 77.827h31.658v32h-31.658c1.146 26.783 5.154 52.825 11.727 77.827l30.679-9.968 9.889 30.434-31.082 10.099c9.015 25.103 20.68 48.942 34.659 71.181l27.615-20.063 18.809 25.889-28.229 20.509c6.803 8.987 14.009 17.651 21.592 25.967 59.635-65.402 96-152.392 96-247.875s-36.365-182.472-96-247.875zM528 32c220.914 0 400 179.086 400 400s-179.086 400-400 400c-220.914 0-400-179.086-400-400s179.086-400 400-400v0z" />
<glyph unicode="&#xe903;" glyph-name="baseball2" d="M800 138.713c-71.373-66.223-166.958-106.713-272-106.713s-200.627 40.489-272 106.713v0 0c17.326 16.076 33.225 33.668 47.486 52.566l23.542-17.104 18.809 25.889-24.105 17.514c15.885 24.968 29.077 51.816 39.168 80.136l29.764-9.671 9.889 30.434-30.136 9.792c7.536 28.141 12.079 57.506 13.268 87.733h32.314v32h-32.314c-1.189 30.227-5.732 59.592-13.268 87.733l30.136 9.792-9.889 30.434-29.764-9.671c-10.091 28.32-23.283 55.168-39.168 80.136l24.105 17.514-18.809 25.889-23.542-17.104c-14.261 18.898-30.16 36.49-47.486 52.566v0c71.373 66.223 166.958 106.713 272 106.713s200.627-40.489 272-106.713v0c-17.326-16.076-33.225-33.668-47.486-52.566l-23.542 17.104-18.809-25.889 24.105-17.514c-15.885-24.968-29.077-51.816-39.168-80.136l-29.764 9.671-9.889-30.434 30.136-9.792c-7.536-28.141-12.079-57.506-13.268-87.733h-32.314v-32h32.314c1.189-30.227 5.732-59.592 13.268-87.733v0l-30.136-9.792 9.889-30.434 29.764 9.671c10.091-28.32 23.283-55.168 39.168-80.136l-24.105-17.514 18.809-25.889 23.542 17.104c14.261-18.898 30.16-36.49 47.486-52.566v0 0 0zM840.56 182.365c54.72 68.424 87.44 155.209 87.44 249.635 0 104.352-39.959 199.371-105.411 270.591-16.126-14.871-30.919-31.165-44.18-48.683l28.229-20.509-18.809-25.889-27.615 20.063c-13.979-22.238-25.644-46.078-34.659-71.181l31.082-10.099-9.889-30.434-30.679 9.968c-6.573-25.002-10.582-51.044-11.727-77.827h31.658v-32h-31.658c1.146-26.783 5.154-52.825 11.727-77.827l30.679 9.968 9.889-30.434-31.082-10.099c9.015-25.103 20.68-48.942 34.659-71.181l27.615 20.063 18.809-25.889-28.229-20.509c13.261-17.518 28.055-33.812 44.18-48.683-0.433-0.471 11.82 13.263 17.972 20.955v0zM212.641 185.905c-53.035 67.866-84.641 153.289-84.641 246.095 0 104.352 39.959 199.371 105.411 270.591 16.126-14.871 30.919-31.165 44.18-48.683l-28.229-20.509 18.809-25.889 27.615 20.063c13.979-22.238 25.644-46.078 34.659-71.181l-31.082-10.099 9.889-30.434 30.679 9.968c6.573-25.002 10.582-51.044 11.727-77.827h-31.658v-32h31.658c-1.146-26.783-5.154-52.825-11.727-77.827l-30.679 9.968-9.889-30.434 31.082-10.099c-9.015-25.103-20.68-48.942-34.659-71.181l-27.615 20.063-18.809-25.889 28.229-20.509c-13.261-17.518-28.055-33.812-44.18-48.683 0.433-0.471-13.778 15.548-20.771 24.496v0z" />
<glyph unicode="&#xe904;" glyph-name="tennis-ball" d="M777.411 702.591v0c-65.452-71.219-105.411-166.239-105.411-270.591s39.959-199.371 105.411-270.591c-65.573-60.471-153.179-97.409-249.411-97.409s-183.838 36.938-249.411 97.409c65.452 71.219 105.411 166.239 105.411 270.591s-39.959 199.371-105.411 270.591v0c65.573 60.471 153.179 97.409 249.411 97.409s183.838-36.938 249.411-97.409zM800 679.875c59.635-65.402 96-152.392 96-247.875s-36.365-182.472-96-247.875c-59.635 65.402-96 152.392-96 247.875s36.365 182.472 96 247.875v0zM256 679.875v0 0c59.635-65.402 96-152.392 96-247.875s-36.365-182.472-96-247.875c-59.635 65.402-96 152.392-96 247.875s36.365 182.472 96 247.875zM528 32c220.914 0 400 179.086 400 400s-179.086 400-400 400c-220.914 0-400-179.086-400-400s179.086-400 400-400v0z" />
<glyph unicode="&#xe905;" glyph-name="tennis-ball2" d="M800 725.287c-71.373 66.223-166.958 106.713-272 106.713s-200.627-40.489-272-106.713v0c78.731-73.051 128-177.415 128-293.287s-49.269-220.236-128-293.287c71.373-66.223 166.958-106.713 272-106.713s200.627 40.489 272 106.713c-78.731 73.051-128 177.415-128 293.287s49.269 220.236 128 293.287v0 0zM822.589 702.591c65.452-71.219 105.411-166.239 105.411-270.591s-39.959-199.371-105.411-270.591c-72.915 67.242-118.589 163.583-118.589 270.591s45.673 203.349 118.589 270.591v0 0zM233.411 702.591c-65.452-71.219-105.411-166.239-105.411-270.591s39.959-199.371 105.411-270.591c72.915 67.242 118.589 163.583 118.589 270.591s-45.673 203.349-118.589 270.591v0z" />
<glyph unicode="&#xe906;" glyph-name="bowling-ball" d="M528 32v0c-220.914 0-400 179.086-400 400s179.086 400 400 400c220.914 0 400-179.086 400-400s-179.086-400-400-400zM528 64c203.241 0 368 164.759 368 368s-164.759 368-368 368c-203.241 0-368-164.759-368-368s164.759-368 368-368v0zM528 544c26.51 0 48 21.49 48 48s-21.49 48-48 48c-26.51 0-48-21.49-48-48s21.49-48 48-48v0zM624 384c26.51 0 48 21.49 48 48s-21.49 48-48 48c-26.51 0-48-21.49-48-48s21.49-48 48-48v0zM432 384c26.51 0 48 21.49 48 48s-21.49 48-48 48c-26.51 0-48-21.49-48-48s21.49-48 48-48v0z" />
<glyph unicode="&#xe907;" glyph-name="bowling-ball2" d="M528 32v0c-220.914 0-400 179.086-400 400s179.086 400 400 400c220.914 0 400-179.086 400-400s-179.086-400-400-400zM528 544c26.51 0 48 21.49 48 48s-21.49 48-48 48c-26.51 0-48-21.49-48-48s21.49-48 48-48v0zM624 384c26.51 0 48 21.49 48 48s-21.49 48-48 48c-26.51 0-48-21.49-48-48s21.49-48 48-48v0zM432 384c26.51 0 48 21.49 48 48s-21.49 48-48 48c-26.51 0-48-21.49-48-48s21.49-48 48-48v0z" />
<glyph unicode="&#xe908;" glyph-name="billiard-ball" d="M576.008 432c19.427-14.596 31.992-37.83 31.992-64 0-44.183-35.817-80-80-80s-80 35.817-80 80c0 26.17 12.565 49.404 31.992 64-19.427 14.596-31.992 37.83-31.992 64 0 44.183 35.817 80 80 80s80-35.817 80-80c0-26.17-12.565-49.404-31.992-64v0 0zM528 32v0c-220.914 0-400 179.086-400 400s179.086 400 400 400c220.914 0 400-179.086 400-400s-179.086-400-400-400zM528 64c203.241 0 368 164.759 368 368s-164.759 368-368 368c-203.241 0-368-164.759-368-368s164.759-368 368-368v0zM528 224c114.875 0 208 93.125 208 208s-93.125 208-208 208c-114.875 0-208-93.125-208-208s93.125-208 208-208v0zM528 320c26.51 0 48 21.49 48 48s-21.49 48-48 48c-26.51 0-48-21.49-48-48s21.49-48 48-48v0zM528 448c26.51 0 48 21.49 48 48s-21.49 48-48 48c-26.51 0-48-21.49-48-48s21.49-48 48-48v0z" />
<glyph unicode="&#xe909;" glyph-name="billiard-ball2" d="M576.008 432c19.427-14.596 31.992-37.83 31.992-64 0-44.183-35.817-80-80-80s-80 35.817-80 80c0 26.17 12.565 49.404 31.992 64-19.427 14.596-31.992 37.83-31.992 64 0 44.183 35.817 80 80 80s80-35.817 80-80c0-26.17-12.565-49.404-31.992-64v0 0zM528 32v0c-220.914 0-400 179.086-400 400s179.086 400 400 400c220.914 0 400-179.086 400-400s-179.086-400-400-400zM528 224c114.875 0 208 93.125 208 208s-93.125 208-208 208c-114.875 0-208-93.125-208-208s93.125-208 208-208v0zM528 320c26.51 0 48 21.49 48 48s-21.49 48-48 48c-26.51 0-48-21.49-48-48s21.49-48 48-48v0zM528 448c26.51 0 48 21.49 48 48s-21.49 48-48 48c-26.51 0-48-21.49-48-48s21.49-48 48-48v0z" />
<glyph unicode="&#xe90a;" glyph-name="soccer-ball" d="M282.096 494.362l113.485-48.172 40.052-137.68-78.856-81.658-129.431-7.11c-39.496 55.842-63.826 123.172-66.993 195.993l121.743 78.626zM284.936 527.92l-49.333 127.558c41.686 54.459 98.242 96.933 163.603 121.355l112.794-91.809v-122.047l-106.134-86.389-120.929 51.331zM387.908 213.023l72.404 74.977h131.769l75.234-77.907-34.756-131.027c-33.143-9.804-68.237-15.066-104.559-15.066s-71.416 5.262-104.559 15.066l-35.533 133.957zM695.414 227.061l-75.882 78.579 41.276 141.887 112.002 47.542 122.837-79.333c-3.167-72.821-27.497-140.151-66.993-195.993l-133.24 7.319zM771.606 529.321l-122.417-51.963-105.188 85.619v122.047l112.794 91.809c65.361-24.423 121.917-66.896 163.603-121.355l-48.791-126.156zM213.234 622.751l41.532-107.667-94.108-60.896c3.655 61.467 22.398 118.872 52.576 168.563zM386.164 92.328c-51.591 21.568-97.225 54.547-133.745 95.782l106.713 5.768 27.032-101.55zM669.836 92.328l27.032 101.55 106.713-5.768c-36.521-41.235-82.154-74.214-133.745-95.782zM842.766 622.751c30.178-49.691 48.921-107.096 52.576-168.563l-94.108 60.896 41.532 107.667zM620.053 788.393l-92.053-74.793-92.053 74.793c29.421 7.577 60.266 11.607 92.053 11.607s62.632-4.030 92.053-11.607zM528 32c220.914 0 400 179.086 400 400s-179.086 400-400 400c-220.914 0-400-179.086-400-400s179.086-400 400-400v0zM528 534.4l102.4-83.2-41.601-131.2h-121.6l-41.601 131.2 102.4 83.2z" />
<glyph unicode="&#xe90b;" glyph-name="soccer-ball2" d="M282.096 494.362l113.485-48.172 40.052-137.68-78.856-81.658-129.431-7.11c-39.496 55.842-63.826 123.172-66.993 195.993l121.743 78.626zM284.936 527.92l-49.333 127.558c41.686 54.459 98.242 96.933 163.603 121.355l112.794-91.809v-122.047l-106.134-86.389-120.929 51.331zM387.908 213.023l72.404 74.977h131.769l75.234-77.907-34.756-131.027c-33.143-9.804-68.237-15.066-104.559-15.066s-71.416 5.262-104.559 15.066l-35.533 133.957zM695.414 227.061l-75.882 78.579 41.276 141.887 112.002 47.542 122.837-79.333c-3.167-72.821-27.497-140.151-66.993-195.993l-133.24 7.319zM771.606 529.321l-122.417-51.963-105.188 85.619v122.047l112.794 91.809c65.361-24.423 121.917-66.896 163.603-121.355l-48.791-126.156zM528 32c220.914 0 400 179.086 400 400s-179.086 400-400 400c-220.914 0-400-179.086-400-400s179.086-400 400-400v0z" />
<glyph unicode="&#xe90c;" glyph-name="soccer-court" d="M96 288h128v288h-128v96.001c0 17.448 14.226 31.999 31.775 31.999h800.45c17.499 0 31.775-14.326 31.775-31.999v-96.001h-128v-288h128v-96.001c0-17.448-14.226-31.999-31.775-31.999h-800.45c-17.499 0-31.775 14.326-31.775 31.999v96.001zM544 288.879v-128.879h-32v128.879c-71.999 7.959-128 69-128 143.121s56.001 135.162 128 143.121v128.879h32v-128.879c71.999-7.959 128-69 128-143.121s-56.001-135.162-128-143.121zM544 321.134c54.277 7.764 96 54.442 96 110.866s-41.723 103.102-96 110.866v-221.732zM512 542.866c-54.277-7.764-96-54.442-96-110.866s41.723-103.102 96-110.866v221.732zM127.785 736c-35.228 0-63.785-28.51-63.785-63.918v-480.165c0-35.301 28.791-63.918 63.785-63.918h800.43c35.228 0 63.785 28.51 63.785 63.918v480.165c0 35.301-28.791 63.918-63.785 63.918h-800.43zM864 544h96v-224h-96v224zM96 544h96v-224h-96v224z" />
<glyph unicode="&#xe90d;" glyph-name="soccer-court2" d="M64 288v-96.082c0-35.301 28.791-63.918 63.785-63.918h384.215v160.879c-71.999 7.959-128 69-128 143.121s56.001 135.162 128 143.121v160.879h-384.215c-35.228 0-63.785-28.51-63.785-63.918v-96.082h160v-288h-160zM992 288v-96.082c0-35.408-28.558-63.918-63.785-63.918h-384.215v160.879c71.999 7.959 128 69 128 143.121s-56.001 135.162-128 143.121v160.879h384.215c34.994 0 63.785-28.617 63.785-63.918v-96.082h-160v-288h160zM544 321.134c54.277 7.764 96 54.442 96 110.866s-41.723 103.102-96 110.866v-221.732zM512 542.866c-54.277-7.764-96-54.442-96-110.866s41.723-103.102 96-110.866v221.732zM864 544v-224h128v224h-128zM64 544v-224h128v224h-128z" />
<glyph unicode="&#xe90e;" glyph-name="football" d="M640 416h-32v-64h-32v64h-32v-64h-32v64h-32v-64h-32v64h-32v-64h-32v64h-64v32h64v64h32v-64h32v64h32v-64h32v64h32v-64h32v64h32v-64h32v64h32v-64h64v-32h-64v-64h-32v64zM528 224v0c-100.309 0-180.163 28.288-241.007 64v288c60.844 35.712 140.699 64 241.007 64s180.163-28.288 241.007-64v-288c-60.844-35.712-140.699-64-241.007-64zM256 307.868c-82.797 57.759-121.6 124.132-121.6 124.132s38.803 66.373 121.6 124.132v-248.265zM800 307.868v248.265c82.797-57.759 121.6-124.132 121.6-124.132s-38.803-66.373-121.6-124.132zM96 432c0 0 128-240 432-240s432 240 432 240c0 0-128 240-432 240s-432-240-432-240v0z" />
<glyph unicode="&#xe90f;" glyph-name="football2" d="M640 416h-32v-64h-32v64h-32v-64h-32v64h-32v-64h-32v64h-32v-64h-32v64h-64v32h64v64h32v-64h32v64h32v-64h32v64h32v-64h32v64h32v-64h32v64h32v-64h64v-32h-64v-64h-32v64zM288 250.348c62.912-33.601 142.382-58.348 240-58.348s177.088 24.747 240 58.348v0 363.304c-62.912 33.601-142.382 58.348-240 58.348s-177.088-24.747-240-58.348v-363.304zM256 269.024c-110.513 70.188-160 162.976-160 162.976s49.487 92.788 160 162.976v-325.952zM800 269.024c110.513 70.188 160 162.976 160 162.976s-49.487 92.788-160 162.976v-325.952z" />
<glyph unicode="&#xe910;" glyph-name="football3" d="M640 448h-32v64h-32v-64h-32v64h-32v-64h-32v64h-32v-64h-32v64h-32v-64h-64v-32h64v-64h32v64h32v-64h32v64h32v-64h32v64h32v-64h32v64h32v-64h32v64h64v32h-64v64h-32v-64zM528 672v0c304 0 432-240 432-240s-128-240-432-240c-304 0-432 240-432 240s128 240 432 240zM528 640c-272 0-393.6-208-393.6-208s121.6-208 393.6-208c272 0 393.6 208 393.6 208s-121.6 208-393.6 208v0z" />
<glyph unicode="&#xe911;" glyph-name="football4" d="M640 416h-32v-64h-32v64h-32v-64h-32v64h-32v-64h-32v64h-32v-64h-32v64h-64v32h64v64h32v-64h32v64h32v-64h32v64h32v-64h32v64h32v-64h32v64h32v-64h64v-32h-64v-64h-32v64zM528 672c-304 0-432-240-432-240s128-240 432-240c304 0 432 240 432 240s-128 240-432 240v0z" />
<glyph unicode="&#xe912;" glyph-name="basketball3" d="M551.848 64.76v0c-5.147 25.613-7.848 52.111-7.848 79.24 0 108.873 43.496 207.586 114.060 279.711-42.233 59.126-95.072 110.155-155.739 150.309-62.052-124.686-187.268-212.406-333.764-221.279v0c36.25-165.146 183.413-288.741 359.443-288.741 8.012 0 15.964 0.256 23.848 0.76zM583.814 68.205c67.931 10.336 129.758 39.244 180.139 81.383v0c-10.544 90.053-41.3 173.929-87.608 246.97-62.209-65.904-100.345-154.777-100.345-252.558 0-25.982 2.693-51.335 7.814-75.795v0zM880.22 538.943c-44.596 147.070-178.783 255.185-339.043 260.826v0c1.864-15.663 2.823-31.604 2.823-47.768 0-52.434-10.089-102.511-28.431-148.397 64.556-41.952 120.869-95.519 165.976-157.739 55.061 47.913 123.356 81.010 198.675 93.079v0zM888.186 507.795v0c-71.692-10.908-136.586-42.502-188.403-88.503 46.807-72.11 79.127-154.494 92.836-243.027v0c64.002 66.211 103.38 156.375 103.38 255.735 0 25.982-2.693 51.335-7.814 75.795zM163.039 384.484v0 0c137.393 7.002 254.892 89.358 311.985 206.555-68.816 40.353-146.507 67.203-229.437 76.914-53.429-63.88-85.588-146.161-85.588-235.953 0-16.101 1.034-31.961 3.039-47.516zM508.961 799.516c-91.812-4.679-174.74-43.008-236.696-102.896 77.495-12 150.279-38.26 215.585-76.013 15.603 40.807 24.15 85.102 24.15 131.393 0 16.101-1.034 31.961-3.039 47.516v0 0zM133.084 368.050c-3.346 20.823-5.084 42.183-5.084 63.95 0 220.914 179.086 400 400 400s400-179.086 400-400c0-220.914-179.086-400-400-400-193.544 0-354.983 137.46-392.015 320.079-1.072 5.287-2.040 10.611-2.901 15.971v0z" />
<glyph unicode="&#xe913;" glyph-name="basketball4" d="M130.823 384.31c-1.864 15.663-2.823 31.604-2.823 47.768 0 89.682 29.514 172.471 79.359 239.184 97.296-5.078 188.373-33.648 267.665-80.144-59.714-122.576-185.505-207.039-331.024-207.039-3.807 0-12.579 0.21-13.177 0.232v0zM135.985 352.157c37.031-182.618 198.47-320.079 392.015-320.079 10.614 0 21.132 0.413 31.537 1.225v0c-10.117 35.177-15.537 72.343-15.537 110.775 0 108.873 43.496 207.586 114.060 279.711-42.233 59.126-95.072 110.155-155.739 150.309-65.492-131.599-201.347-222.020-358.321-222.020-2.678 0-5.349 0.026-8.015 0.079v0 0zM503.443 831.337c-107.221-6.494-203.043-55.225-271.044-129.773v0c92.431-8.281 179.057-36.716 255.451-80.879 15.603 40.807 24.15 85.102 24.15 131.393 0 27.21-2.953 53.731-8.557 79.259v0 0zM536.015 832c178.963-3.517 329.114-124.568 376.448-289.146-88.051-6.867-168.098-42.246-230.918-96.911-45.107 62.22-101.42 115.787-165.976 157.739 18.342 45.886 28.431 95.963 28.431 148.397 0 27.369-2.749 54.097-7.985 79.921v0zM767.184 111.438c-50.565-37.78-110.366-63.88-175.404-74.302v0c-10.262 33.843-15.78 69.748-15.78 106.943 0 97.78 38.136 186.654 100.345 252.558 52.801-83.282 85.382-180.65 90.839-285.199v0 0zM797.486 136.478c80.195 73.152 130.514 178.5 130.514 295.6 0 27.129-2.701 53.627-7.848 79.24-84.34-5.395-160.952-39.2-220.368-91.948 53.763-82.827 88.413-179.207 97.702-282.892v0 0z" />
<glyph unicode="&#xe914;" glyph-name="baseball-set" d="M636.374 144.362v0c-1.138 5.23-1.882 11.286-1.566 8.927 65.944 7.754 118.256 60.066 126.011 126.011 49.851-6.676 89.32-46.145 95.996-95.996-65.944-7.754-118.256-60.066-126.011-126.011-46.835 6.272-84.507 41.49-94.429 87.069zM728.478 278.963v0 0c-7.454-47.976-45.358-85.88-93.334-93.334 7.454 47.976 45.358 85.88 93.334 93.334zM856.478 150.963c-7.454-47.976-45.358-85.88-93.334-93.334 7.454 47.976 45.358 85.88 93.334 93.334v0 0zM441.782 429.815l-232.843-264.96 28.467-28.467 264.96 232.843-60.583 60.583zM462.95 453.902l63.503-63.503 352.746 309.989c31.335 27.537 32.744 73.853 3.481 103.116l-6.626 6.626c-29.412 29.412-75.464 27.984-103.116-3.481l-309.989-352.746zM187.771 140.768l-21.168-24.087-11.418 11.418c-6.191 6.191-16.457 5.961-22.523-0.104-6.248-6.248-6.432-16.196-0.104-22.523l45.464-45.464c6.191-6.191 16.457-5.961 22.523 0.104 6.248 6.248 6.432 16.196 0.104 22.523l-11.418 11.418 24.087 21.168-25.547 25.547zM162.948 160.809l590.395 669.115c38.524 43.661 102.629 45.543 143.55 4.622l10.203-10.203c40.891-40.891 38.852-105.191-4.622-143.55l-669.142-590.42c7.491-17.5 4.132-38.597-10.159-52.888-18.876-18.876-49.139-18.743-67.886 0.004l-45.247 45.247c-18.687 18.687-18.749 49.141-0.004 67.886 14.4 14.4 35.427 17.737 52.913 10.187v0 0zM745.811 312.296c-79.529 0-144-64.471-144-144s64.471-144 144-144c79.529 0 144 64.471 144 144s-64.471 144-144 144v0z" />
<glyph unicode="&#xe915;" glyph-name="baseball-set2" d="M889.017 183.503c-7.072 67.384-60.616 120.928-128 128v0c0.524-4.997 0.793-10.071 0.793-15.207 0-79.529-64.471-144-144-144-5.136 0-10.209 0.269-15.207 0.793 7.072-67.384 60.616-120.928 128-128-0.524 4.997-0.793 10.071-0.793 15.207 0 79.529 64.471 144 144 144 5.136 0 10.209-0.269 15.207-0.793v0zM888.818 151.299c-7.754-65.944-60.066-118.257-126.011-126.011-0.657 4.909-0.997 9.919-0.997 15.007 0 61.856 50.144 112 112 112 5.089 0 10.098-0.339 15.007-0.997v0zM728.814 311.304c-65.944-7.754-118.257-60.066-126.011-126.011 4.909-0.657 9.919-0.997 15.007-0.997 61.856 0 112 50.144 112 112 0 5.089-0.339 10.098-0.997 15.007v0zM419.748 451.849l-236.467-267.996 73.123-73.123 267.996 236.467-104.652 104.652zM440.961 475.891l312.382 354.033c38.524 43.661 102.629 45.543 143.55 4.622l10.203-10.203c40.891-40.891 38.852-105.191-4.622-143.55l-354.033-312.382-107.48 107.48zM234.493 87.386c5.917-16.866 2.166-36.414-11.321-49.901-18.876-18.876-49.139-18.743-67.886 0.004l-45.247 45.247c-18.687 18.687-18.749 49.141-0.004 67.886 13.563 13.563 33.004 17.312 49.829 11.394l74.629-74.629z" />
<glyph unicode="&#xe916;" glyph-name="tennis-ball3" d="M528 832c-220.914 0-400-179.086-400-400s179.086-400 400-400c220.914 0 400 179.086 400 400s-179.086 400-400 400v0zM528 64c-203.241 0-368 164.759-368 368s164.759 368 368 368c137.154 0 256.784-75.032 320.081-186.288-29.956-23.619-67.773-37.712-108.881-37.712-39.126 0-67.2 16-105.026 34.898s-67.387 29.102-106.174 29.102c-114.875 0-208-93.125-208-208s93.125-208 208-208c38.787 0 80 16 106.706 29.637s65.368 34.363 104.494 34.363c41.108 0 78.924-14.093 108.881-37.712-63.297-111.256-182.926-186.288-320.081-186.288v0zM896 432v0c0-54.499-11.847-106.23-33.105-152.76-34.572 25.613-77.364 40.76-123.695 40.76-46.599 0-97.931-27.782-131.2-44.8-13.645-6.979-48.421-19.2-80-19.2-97.202 0-176 78.798-176 176s78.798 176 176 176c31.579 0 53.045-5.723 80-19.2 32-16 84.601-44.8 131.2-44.8 46.33 0 89.122 15.147 123.695 40.76 21.259-46.53 33.105-98.262 33.105-152.76z" />
<glyph unicode="&#xe917;" glyph-name="tennis-ball4" d="M887.968 606.631c-1.345 2.768 5.808-12.096 10.134-22.617 19.27-46.867 29.898-98.199 29.898-152.014 0-62.612-14.386-121.864-40.032-174.631-7.755 7.935-16.14 15.252-25.073 21.871-34.572 25.613-77.364 40.76-123.695 40.76-46.599 0-97.931-27.782-131.2-44.8-13.645-6.979-48.421-19.2-80-19.2-97.202 0-176 78.798-176 176s78.798 176 176 176c31.579 0 53.045-5.723 80-19.2 32-16 84.601-44.8 131.2-44.8 46.33 0 89.122 15.147 123.695 40.76 8.934 6.618 17.318 13.936 25.073 21.871v0zM871.909 636.392c1.986-3.335-3.566 6.079-8.663 13.89-71.381 109.406-194.869 181.718-335.246 181.718-220.914 0-400-179.086-400-400s179.086-400 400-400c146.236 0 274.144 78.474 343.909 195.608-7.217 8.278-15.197 15.874-23.828 22.68-29.956 23.619-67.773 37.712-108.881 37.712-39.126 0-77.788-20.726-104.494-34.363s-67.919-29.637-106.706-29.637c-114.875 0-208 93.125-208 208s93.125 208 208 208c38.787 0 68.347-10.204 106.174-29.102s65.9-34.898 105.026-34.898c41.108 0 78.924 14.093 108.881 37.712 8.632 6.806 16.611 14.402 23.828 22.68v0z" />
<glyph unicode="&#xe918;" glyph-name="trophy" d="M512 128v160c-105.897 0.092-192 85.918-192 191.778v0.222c-112 48-128 288-128 288h672c0 0-16-240-128-288v0-0.222c0-105.907-85.946-191.687-192-191.778v-160h128v-32h-288v32h128zM352 736v-255.759c0-88.499 71.657-160.241 160.035-160.241h31.93c88.385 0 160.035 71.513 160.035 160.241v255.759h-352zM320 736h-92.8c0 0 17.733-167.061 92.8-220.8v220.8zM735.438 736v-220.17c75.066 53.739 92.812 220.17 92.812 220.17h-92.812z" />
<glyph unicode="&#xe919;" glyph-name="trophy2" d="M512 128h-128v-32h288v32h-128v160c106.054 0.092 192 85.871 192 191.778v0.222c112 48 128 288 128 288h-672c0 0 16-240 128-288v-0.222c0-105.86 86.103-191.686 192-191.778v-160zM320 736v-220.8c-75.066 53.739-92.8 220.8-92.8 220.8h92.8zM735.438 736h92.812c0 0-17.746-166.431-92.812-220.17v220.17z" />
<glyph unicode="&#xe91a;" glyph-name="trophy-one" d="M512 128v160c-105.897 0.092-192 85.918-192 191.778v0.222c-112 48-128 288-128 288h672c0 0-16-240-128-288v0-0.222c0-105.907-85.946-191.687-192-191.778v-160h128v-32h-288v32h128zM352 736v-255.759c0-88.499 71.657-160.241 160.035-160.241h31.93c88.385 0 160.035 71.513 160.035 160.241v255.759h-352zM320 736h-92.8c0 0 17.733-167.061 92.8-220.8v220.8zM735.438 736v-220.17c75.066 53.739 92.812 220.17 92.812 220.17h-92.812zM543.904 384h-31.904v192h-64v32c52.81 0 64 28.654 64 64h31.904v-288z" />
<glyph unicode="&#xe91b;" glyph-name="trophy-one2" d="M512 128h-128v-32h288v32h-128v160c106.054 0.092 192 85.871 192 191.778v0.222c112 48 128 288 128 288h-672c0 0 16-240 128-288v-0.222c0-105.86 86.103-191.686 192-191.778v-160zM320 736v-220.8c-75.066 53.739-92.8 220.8-92.8 220.8h92.8zM735.438 736h92.812c0 0-17.746-166.431-92.812-220.17v220.17zM543.904 384h-31.904v192h-64v32c52.81 0 64 28.654 64 64h31.904v-288z" />
<glyph unicode="&#xe91c;" glyph-name="trophy3" d="M672 160h96v-128h-480v128h96v96h128v128c-105.897 0.092-192 85.918-192 191.778v0.222c-112 48-128 288-128 288h672c0 0-16-240-128-288v-0.222c0-105.907-85.946-191.687-192-191.778v-128h128v-96zM352 832v-255.759c0-88.499 71.657-160.241 160.035-160.241h31.93c88.385 0 160.035 71.513 160.035 160.241v255.759h-352zM320 832h-92.8c0 0 17.733-167.061 92.8-220.8v220.8zM735.438 832v-220.17c75.066 53.739 92.812 220.17 92.812 220.17h-92.812zM416 224v-64h224v64h-224zM320 128v-64h416v64h-416z" />
<glyph unicode="&#xe91d;" glyph-name="trophy4" d="M672 160v96h-128v128c106.054 0.092 192 85.871 192 191.778v0.222c112 48 128 288 128 288h-672c0 0 16-240 128-288v-0.222c0-105.86 86.103-191.686 192-191.778v-128h-128v-96h-96v-128h480v128h-96zM320 832v-220.8c-75.066 53.739-92.8 220.8-92.8 220.8h92.8zM735.438 832h92.812c0 0-17.746-166.431-92.812-220.17v220.17z" />
<glyph unicode="&#xe91e;" glyph-name="medal" d="M608 896h-160v-461.656c25.022 8.844 51.949 13.656 80 13.656s54.978-4.812 80-13.656v461.656zM640 896v-475.681c19.058-10.074 36.596-22.639 52.18-37.261l43.82 128.622v384.32h-96zM416 896h-96v-384.32l43.82-128.622c15.585 14.622 33.123 27.187 52.18 37.261v475.681zM339.718 356.845l-51.718 155.155v416h480v-416l-51.718-155.155c32.384-40.908 51.718-92.618 51.718-148.845 0-132.548-107.452-240-240-240s-240 107.452-240 240c0 56.226 19.335 107.936 51.718 148.845v0 0zM528 0c114.875 0 208 93.125 208 208s-93.125 208-208 208c-114.875 0-208-93.125-208-208s93.125-208 208-208v0z" />
<glyph unicode="&#xe91f;" glyph-name="medal2" d="M608 928h-160v-459.955c25.294 7.772 52.158 11.955 80 11.955s54.706-4.183 80-11.955v459.955zM640 928h128v-416l-39.914-119.743c-24.627 26.729-54.542 48.512-88.086 63.688v472.056zM416 928h-128v-416l39.914-119.743c24.627 26.729 54.542 48.512 88.086 63.688v472.056zM528-32c132.548 0 240 107.452 240 240s-107.452 240-240 240c-132.548 0-240-107.452-240-240s107.452-240 240-240v0z" />
<glyph unicode="&#xe920;" glyph-name="medal3" d="M608 896h-160v-461.656c25.022 8.844 51.949 13.656 80 13.656s54.978-4.812 80-13.656v461.656zM640 896v-475.681c19.058-10.074 36.596-22.639 52.18-37.261l43.82 128.622v384.32h-96zM416 896h-96v-384.32l43.82-128.622c15.585 14.622 33.123 27.187 52.18 37.261v475.681zM339.718 356.845l-51.718 155.155v416h480v-416l-51.718-155.155c32.384-40.908 51.718-92.618 51.718-148.845 0-132.548-107.452-240-240-240s-240 107.452-240 240c0 56.226 19.335 107.936 51.718 148.845v0 0zM528 0c114.875 0 208 93.125 208 208s-93.125 208-208 208c-114.875 0-208-93.125-208-208s93.125-208 208-208v0zM528 130.462l-88.615-66.462 24.615 110.769-80 81.231h112l32 96 32-96h112l-80-81.231 32-110.769-96 66.462z" />
<glyph unicode="&#xe921;" glyph-name="medal4" d="M608 928h-160v-459.955c25.294 7.772 52.158 11.955 80 11.955s54.706-4.183 80-11.955v459.955zM640 928h128v-416l-39.914-119.743c-24.627 26.729-54.542 48.512-88.086 63.688v472.056zM416 928h-128v-416l39.914-119.743c24.627 26.729 54.542 48.512 88.086 63.688v472.056zM528-32c132.548 0 240 107.452 240 240s-107.452 240-240 240c-132.548 0-240-107.452-240-240s107.452-240 240-240v0zM528 130.462l-88.615-66.462 24.615 110.769-80 81.231h112l32 96 32-96h112l-80-81.231 32-110.769-96 66.462z" />
<glyph unicode="&#xe922;" glyph-name="weights" d="M736 416h-416v-111.794c0-26.717-21.49-48.206-48-48.206-26.694 0-48 21.583-48 48.206v18.524c-5.004-1.769-10.39-2.73-16-2.73-26.694 0-48 21.514-48 48.054v47.946h-64v32h64v47.946c0 26.576 21.49 48.054 48 48.054 5.622 0 11.005-0.954 16-2.709v0 18.503c0 26.717 21.49 48.206 48 48.206 26.694 0 48-21.583 48-48.206v-111.794h416v111.794c0 26.717 21.49 48.206 48 48.206 26.694 0 48-21.583 48-48.206v-18.524c5.004 1.769 10.39 2.73 16 2.73 26.694 0 48-21.514 48-48.054v-47.946h64v-32h-64v-47.946c0-26.576-21.49-48.054-48-48.054-5.622 0-11.005 0.954-16 2.709v-18.503c0-26.717-21.49-48.206-48-48.206-26.694 0-48 21.583-48 48.206v111.794zM848 512c-8.837 0-16-6.875-16-15.926v-128.147c0-8.796 7.422-15.926 16-15.926 8.837 0 16 6.875 16 15.926v128.147c0 8.796-7.422 15.926-16 15.926v0zM208 512c-8.837 0-16-6.875-16-15.926v-128.147c0-8.796 7.422-15.926 16-15.926 8.837 0 16 6.875 16 15.926v128.147c0 8.796-7.422 15.926-16 15.926v0zM784 576c-8.837 0-16-7.119-16-16.309v-255.381c0-9.007 7.422-16.309 16-16.309 8.837 0 16 7.119 16 16.309v255.381c0 9.007-7.422 16.309-16 16.309v0zM272 576c-8.837 0-16-7.119-16-16.309v-255.381c0-9.007 7.422-16.309 16-16.309 8.837 0 16 7.119 16 16.309v255.381c0 9.007-7.422 16.309-16 16.309v0z" />
<glyph unicode="&#xe923;" glyph-name="weights2" d="M736 416h-416v-111.794c0-26.717-21.49-48.206-48-48.206-26.694 0-48 21.583-48 48.206v18.524c-5.004-1.769-10.39-2.73-16-2.73-26.694 0-48 21.514-48 48.054v47.946h-64v32h64v47.946c0 26.576 21.49 48.054 48 48.054 5.622 0 11.005-0.954 16-2.709v0 18.503c0 26.717 21.49 48.206 48 48.206 26.694 0 48-21.583 48-48.206v-111.794h416v111.794c0 26.717 21.49 48.206 48 48.206 26.694 0 48-21.583 48-48.206v-18.524c5.004 1.769 10.39 2.73 16 2.73 26.694 0 48-21.514 48-48.054v-47.946h64v-32h-64v-47.946c0-26.576-21.49-48.054-48-48.054-5.622 0-11.005 0.954-16 2.709v-18.503c0-26.717-21.49-48.206-48-48.206-26.694 0-48 21.583-48 48.206v111.794z" />
<glyph unicode="&#xe924;" glyph-name="tennis-racket" d="M416 800h32v32h-25.751c-2.12-2.845-4.203-5.768-6.249-8.768v-23.232zM416 736h32v32h-32v-32zM384 736v26.574c-3.479-8.58-6.713-17.451-9.681-26.574h9.681zM416 672h32v32h-32v-32zM384 672v32h-18.739c-2.533-10.437-4.731-21.12-6.569-32h25.308zM416 512v-32h32v32h-32zM384 512h-18.591c4.977-12.805 11.234-24.175 18.591-34.199v0 34.199zM416 576v-32h32v32h-32zM384 576h-31.565c0.63-11.347 1.937-22.005 3.869-32v0h27.696v32zM416 640v-32h32v32h-32zM384 640h-29.604c-1.055-10.547-1.772-21.227-2.13-32v0h31.734v32zM480 800h32v32h-32v-32zM480 883.763v-19.763h32v30.662c-10.967-1.839-21.668-5.54-32-10.9zM480 736h32v32h-32v-32zM480 672h32v32h-32v-32zM480 512v-32h32v32h-32zM448 429.686v18.314h-33.943c10.368-7.489 21.755-13.557 33.943-18.314zM480 420.464c10.332-2.047 21.033-3.365 32-4.005v31.541h-32v-27.536zM480 576v-32h32v32h-32zM480 640v-32h32v32h-32zM608 832v-32h32v23.232c-2.045 3-4.129 5.923-6.249 8.768h-25.751zM544 832v-32h32v32h-32zM544 864h32v19.763c-10.332 5.36-21.033 9.061-32 10.9v-30.662zM608 768v-32h32v32h-32zM544 768v-32h32v32h-32zM608 704v-32h32v32h-32zM690.739 704h-18.739v-32h25.308c-1.838 10.88-4.036 21.563-6.569 32zM681.681 736c-2.968 9.123-6.202 17.994-9.681 26.574v-26.574h9.681zM544 704v-32h32v32h-32zM608 480h32v32h-32v-32zM608 448v-18.314c12.188 4.757 23.575 10.825 33.943 18.314h-33.943zM544 480h32v32h-32v-32zM544 448v-31.541c10.967 0.64 21.668 1.958 32 4.005v0 27.536h-32zM608 544h32v32h-32v-32zM699.696 544c1.932 9.995 3.239 20.653 3.869 32v0h-31.565v-32h27.696zM690.591 512h-18.591v-34.199c7.357 10.024 13.614 21.394 18.591 34.199zM544 544h32v32h-32v-32zM608 608h32v32h-32v-32zM703.734 608c-0.358 10.773-1.075 21.453-2.13 32v0h-29.604v-32h31.734zM544 608h32v32h-32v-32zM735.635 576c-6.114-131.614-88.327-186.581-191.635-191.616v-163.098c18.723-6.59 32-24.445 32-45.437v-159.697c0-26.766-21.49-48.152-48-48.152-26.694 0-48 21.558-48 48.152v159.697c0 21.101 13.357 38.859 32 45.43v0 163.106c-103.308 5.035-185.521 60.002-191.635 191.616h-0.365v32h0.24c5.256 175.133 96.263 320 207.76 320s202.504-144.867 207.76-320h0.24v-32h-0.365zM528 192c-8.837 0-16-7.292-16-15.712v-160.576c0-8.678 7.422-15.712 16-15.712 8.837 0 16 7.292 16 15.712v160.576c0 8.678-7.422 15.712-16 15.712v0 0z" />
<glyph unicode="&#xe925;" glyph-name="tennis-racket2" d="M416 800h32v32h-25.751c-2.12-2.845-4.203-5.768-6.249-8.768v-23.232zM416 736h32v32h-32v-32zM384 736v26.574c-3.479-8.58-6.713-17.451-9.681-26.574h9.681zM416 672h32v32h-32v-32zM384 672v32h-18.739c-2.533-10.437-4.731-21.12-6.569-32h25.308zM416 512v-32h32v32h-32zM384 512h-18.591c4.977-12.805 11.234-24.175 18.591-34.199v0 34.199zM416 576v-32h32v32h-32zM384 576h-31.565c0.63-11.347 1.937-22.005 3.869-32v0h27.696v32zM416 640v-32h32v32h-32zM384 640h-29.604c-1.055-10.547-1.772-21.227-2.13-32v0h31.734v32zM480 800h32v32h-32v-32zM480 883.763v-19.763h32v30.662c-10.967-1.839-21.668-5.54-32-10.9zM480 736h32v32h-32v-32zM480 672h32v32h-32v-32zM480 512v-32h32v32h-32zM448 429.686v18.314h-33.943c10.368-7.489 21.755-13.557 33.943-18.314zM480 420.464c10.332-2.047 21.033-3.365 32-4.005v31.541h-32v-27.536zM480 576v-32h32v32h-32zM480 640v-32h32v32h-32zM608 832v-32h32v23.232c-2.045 3-4.129 5.923-6.249 8.768h-25.751zM544 832v-32h32v32h-32zM544 864h32v19.763c-10.332 5.36-21.033 9.061-32 10.9v-30.662zM608 768v-32h32v32h-32zM544 768v-32h32v32h-32zM608 704v-32h32v32h-32zM690.739 704h-18.739v-32h25.308c-1.838 10.88-4.036 21.563-6.569 32zM681.681 736c-2.968 9.123-6.202 17.994-9.681 26.574v-26.574h9.681zM544 704v-32h32v32h-32zM608 480h32v32h-32v-32zM608 448v-18.314c12.188 4.757 23.575 10.825 33.943 18.314v0h-33.943zM544 480h32v32h-32v-32zM544 448v-31.541c10.967 0.64 21.668 1.958 32 4.005v0 27.536h-32zM608 544h32v32h-32v-32zM699.696 544c1.932 9.995 3.239 20.653 3.869 32v0h-31.565v-32h27.696zM690.591 512h-18.591v-34.199c7.357 10.024 13.614 21.394 18.591 34.199zM544 544h32v32h-32v-32zM608 608h32v32h-32v-32zM703.734 608c-0.358 10.773-1.075 21.453-2.13 32v0h-29.604v-32h31.734zM544 608h32v32h-32v-32zM735.635 576c-6.114-131.614-88.327-186.581-191.635-191.616v-163.098c18.723-6.59 32-24.445 32-45.437v-159.697c0-26.766-21.49-48.152-48-48.152-26.694 0-48 21.558-48 48.152v159.697c0 21.101 13.357 38.859 32 45.43v0 163.106c-103.308 5.035-185.521 60.002-191.635 191.616h-0.365v32h0.24c5.256 175.133 96.263 320 207.76 320s202.504-144.867 207.76-320h0.24v-32h-0.365z" />
<glyph unicode="&#xe926;" glyph-name="basketball-hoop" d="M408.759 309.081v0c12.105-5.946 28.108-10.939 46.785-14.571l-6.163 33.896c-20.248 4.603-38.272 10.929-53.14 18.554l12.518-37.879zM420.837 272.534l12.091-36.586c10.337-3.031 21.989-5.576 34.633-7.528l-6.090 33.493c-14.633 2.718-28.281 6.305-40.634 10.621v0zM512 288.293v32.033c-10.133 0.415-20.019 1.221-29.583 2.383v0l5.976-32.871c7.629-0.726 15.517-1.247 23.607-1.546v0zM512 256.326v0c-5.999 0.246-11.911 0.628-17.721 1.141l5.922-32.573c3.879-0.253 7.815-0.454 11.799-0.601v32.033zM544 256.326v-32.033c3.984 0.147 7.919 0.348 11.799 0.601l5.922 32.573c-5.81-0.512-11.722-0.895-17.721-1.141v0zM544 288.293v0c8.090 0.298 15.978 0.82 23.607 1.546l5.976 32.871c-9.565-1.163-19.45-1.968-29.583-2.383v-32.033zM635.038 272.49v0c-12.319-4.296-25.925-7.869-40.509-10.577l-6.090-33.493c12.578 1.941 24.173 4.47 34.47 7.48l12.128 36.59zM647.153 309.038l12.562 37.899c-14.86-7.615-32.867-13.933-53.096-18.531l-6.163-33.896c18.631 3.623 34.602 8.601 46.696 14.528v0zM478.768 166.775l-5.298 29.139c-10.17 1.505-19.934 3.42-29.196 5.701l3.556-10.761h0.22c0.861-9.779 12.69-18.441 30.718-24.078zM511.882 160.65c0.039-0.003 0.079-0.006 0.118-0.010v0 31.686c-1.986 0.081-3.963 0.178-5.93 0.289l5.812-31.965zM544 192.326v-31.686c0.039 0.003 0.079 0.006 0.118 0.010v0l5.812 31.965c-1.967-0.111-3.944-0.207-5.93-0.289v0 0zM611.529 201.566v0 0c-9.204-2.26-18.901-4.158-29-5.652l-5.298-29.139c18.027 5.638 29.857 14.3 30.718 24.078h0.029l3.551 10.713zM356.611 381.728v0c-0.387 0.753-0.751 1.511-1.091 2.272h-67.521v288h480v-288h-67.521c-0.32-0.716-0.661-1.429-1.022-2.138l-18.814-61.862h151.356v416h-608v-416h151.498l-18.887 61.728zM355.521 416v0 0c16.307 36.516 87.332 64 172.479 64s156.172-27.484 172.479-64h35.521v224h-416v-224h35.521zM416.471 186.088l-31.182 101.912h-193.29v480h672v-480h-193.088l-31.416-103.301h-0.217c-6.341-31.908-53.744-56.699-111.279-56.699-58.368 0-106.308 25.513-111.529 58.088v0 0zM528 352c79.529 0 144 21.49 144 48s-64.471 48-144 48c-79.529 0-144-21.49-144-48s64.471-48 144-48v0z" />
<glyph unicode="&#xe927;" glyph-name="basketball-hoop2" d="M356.611 381.728v0c-0.387 0.753-0.751 1.511-1.091 2.272h-67.521v288h480v-288h-67.521c-0.32-0.716-0.661-1.429-1.022-2.138l-18.814-61.862h151.356v416h-608v-416h151.498l-18.887 61.728zM355.521 416v0 0c16.307 36.516 87.332 64 172.479 64s156.172-27.484 172.479-64h35.521v224h-416v-224h35.521zM416.471 186.088l-31.182 101.912h-193.29v480h672v-480h-193.088l-31.416-103.301h-0.217c-6.341-31.908-53.744-56.699-111.279-56.699-58.368 0-106.308 25.513-111.529 58.088v0 0zM528 352c79.529 0 144 21.49 144 48s-64.471 48-144 48c-79.529 0-144-21.49-144-48s64.471-48 144-48v0z" />
<glyph unicode="&#xe928;" glyph-name="table-tennis" d="M271 448h419.2c11.4 28.9 16.8 61.2 14.3 95.3l-2.4 33.4c-7.4 105.7-99.7 191.3-205.7 191.3h-31.7c-106.1 0-198.3-85.8-205.8-191.3l-2.4-33.4c-2.4-34.1 2.9-66.4 14.5-95.3zM287.3 416c36.2-58 100.8-96 177.1-96h32.3c76.2 0 140.8 38 177.1 96h-386.5zM562.3 127.9c1-17.6-14.2-31.9-32-31.9h-96c-18.1 0-32.9 14.3-32 31.9l9.2 165.6c-114.2 24.5-194.7 127-187 249.7l2.1 32.9c7.7 124 114.2 223.9 237.8 223.9h32.3c123.8 0 230.1-100.2 237.8-223.8l2.1-32.9c7.6-122.3-72.2-224.5-185.8-249.4l11.5-166zM443.3 288.9c-4-72.8-8.9-160.9-9-160.9h96c-0.3 0-6.3 88.1-11.3 161-7.4-0.6-14.9-1-22.5-1h-31.9c-7.2 0-14.3 0.3-21.3 0.9v0zM832.6 272c0 35.3-28.7 64-64 64s-64-28.7-64-64 28.7-64 64-64 64 28.7 64 64v0zM736.6 272c0 17.7 14.3 32 32 32s32-14.3 32-32-14.3-32-32-32-32 14.3-32 32v0z" />
<glyph unicode="&#xe929;" glyph-name="table-tennis2" d="M236.983 448c-10.048 29.432-14.583 61.579-12.478 95.25l2.058 32.924c7.743 123.892 114.205 223.826 237.828 223.826h32.322c123.8 0 230.102-100.21 237.828-223.826l2.058-32.924c2.104-33.672-2.426-65.819-12.468-95.25h-487.147zM250.605 416c39.453-76.501 119.118-128 214.018-128h31.859c94.94 0 174.594 51.495 214.034 128h-459.91zM551.25 262.32l9.302-134.399c0.98-17.639-14.161-31.921-32-31.921h-96c-18.113 0-32.929 14.292-31.95 31.921l7.446 134.033c17.543-3.899 35.893-5.954 54.851-5.954h31.859c19.551 0 38.455 2.184 56.492 6.32v0 0zM832.552 272c0 35.346-28.654 64-64 64s-64-28.654-64-64c0-35.346 28.654-64 64-64s64 28.654 64 64v0z" />
<glyph unicode="&#xe92a;" glyph-name="volleyball" d="M249.184 672.187c-3.23-127.062 35.344-255.67 117.67-363.534-45.49-33.097-95.719-58.463-148.545-75.521 1.979-3.076-11.963 19.155-19.516 34.229-24.823 49.538-38.793 105.457-38.793 164.638 0 81.975 26.804 157.69 72.125 218.859 7.468 10.079 19.296 23.923 17.059 21.329v0zM284.223 707.68v0c-4.159-3.681 9.696 8.673 21.526 17.65 34.484 26.168 73.723 46.395 116.194 59.156 8.559 2.572 21.176 5.684 18.75 5.094-10.467-109.208 10.965-222.506 68.21-325.289-31.62-52.846-71.089-98.205-116.052-135.448-85.346 111.95-120.739 247.563-108.627 378.836zM857.965 595.117c-110.631 71.089-245.737 104.699-385.010 86.61-3.972 38.212-3.715 76.53 0.586 114.271-2.682-0.398 13.436 1.905 24.377 2.79 9.921 0.803 19.954 1.212 30.082 1.212 133.138 0 249.763-70.702 314.376-176.609 6.777-11.107 16.602-30.319 15.589-28.274v0zM880.167 539.116v0c-2.039 6.712 1.915-5.602 5.164-18.787 6.971-28.296 10.669-57.881 10.669-88.329 0-18.994-1.439-37.651-4.214-55.87-1.755-11.524-5.563-28.799-4.965-26.173-95.079 79.434-216.908 127.92-350.002 129.975-30.121 54.103-49.719 111.295-59.436 169.179 148.541 19.233 292.043-23.902 402.784-109.995zM362.387 103.283v0c6.454-3.258-5.765 2.675-17.863 9.646-36.79 21.201-69.568 48.582-96.918 80.725-4.845 5.695-11.313 13.959-9.938 12.196 120.905 41.434 228.23 124.204 298.737 242.084 61.901-0.966 121.216-12.584 176.193-33.102-65.578-156.491-197.196-267.28-350.211-311.549zM408.666 83.78c146.355 53.289 270.244 165.277 334.394 318.581 49.19-21.965 94.404-51.233 134.263-86.426 1.273 3.835-2.060-6.39-5.403-15.145-52.852-138.45-186.902-236.79-343.92-236.79-38.991 0-76.566 6.064-111.833 17.3-4.459 1.421-9.43 3.14-7.502 2.48v0zM928 432c0 220.914-179.086 400-400 400s-400-179.086-400-400c0-220.914 179.086-400 400-400s400 179.086 400 400v0z" />
<glyph unicode="&#xe92b;" glyph-name="volleyball2" d="M921.647 503.392c-114.984 109.544-276.406 167.453-444.264 145.719 9.717-57.884 29.315-115.076 59.436-169.179 146.035-2.255 278.508-60.409 376.964-154.009-0.548-1.996 2.817 10.478 4.68 18.855 6.244 28.077 9.537 57.265 9.537 87.222 0 15.363-0.866 30.524-2.552 45.436-1.847 16.337-5.141 33.396-3.8 25.956v0zM907.173 559.731c-118.402 94.921-273.537 142.866-434.217 121.997-5.133 49.389-3.204 98.954 5.394 147.221-1.641-0.203 5.747 0.706 11.124 1.22 12.679 1.212 25.53 1.831 38.527 1.831 167.707 0 311.309-103.209 370.752-249.577 4.615-11.363 9.774-26.715 8.42-22.693v0zM902.784 291.915c-45.661 46.011-99.735 83.659-159.724 110.446-71.067-169.833-215.45-288.96-382.471-333.749-1.897 0.875 5.394-2.492 11.025-4.886 48.039-20.425 100.893-31.726 156.386-31.726 166.396 0 309.061 101.602 369.343 246.151 2.896 6.944 6.354 16.206 5.441 13.764v0zM316.848 92.208c172.136 34.078 323.749 150.804 395.75 322.624-54.977 20.518-114.292 32.136-176.193 33.102-76.767-128.347-197.183-215.073-331.25-252.14-1.541 2.102 5.408-7.354 10.706-13.956 22.803-28.416 49.405-53.651 79.037-74.935 8.404-6.037 23.27-15.517 21.95-14.695v0zM186.327 223.9c64.531 16.456 125.941 45.037 180.527 84.753-93.136 122.027-130.275 270.603-114.24 413.455 1.123 1.066-13.75-13.446-21.745-22.311-63.942-70.901-102.868-164.803-102.868-267.797 0-69.058 17.5-134.029 48.308-190.72 4.442-8.173 11.372-19.598 10.018-17.38v0zM290.482 753.879c-26.022-145.169 6.96-299.888 102.367-425.035 44.962 37.242 84.431 82.602 116.052 135.448-63.175 113.43-82.733 239.666-63.934 359.079 1.010 0.213-5.644-1.209-9.942-2.232-45.316-10.787-87.643-29.285-125.517-54.029-9.076-5.93-21.519-15.074-19.025-13.23v0z" />
<glyph unicode="&#xe92c;" glyph-name="stop-watch" d="M247.343 607.284c48.95 44.891 110.085 76.707 177.873 89.914-25.155 20.538-41.216 51.794-41.216 86.801 0 61.856 50.144 112 112 112s112-50.144 112-112c0-35.007-16.061-66.263-41.216-86.801v0c67.788-13.208 128.924-45.023 177.873-89.914v0l39.343 39.343-22.627 22.627 22.627 22.627 67.882-67.882-22.627-22.627-22.627 22.627-39.343-39.343c60.060-65.49 96.716-152.793 96.716-248.657 0-203.241-164.759-368-368-368s-368 164.759-368 368c0 95.864 36.656 183.167 96.716 248.657l-39.343 39.343-22.627-22.627-22.627 22.627 67.882 67.882 22.627-22.627-22.627-22.627 39.343-39.343zM516.695 379.322l99.796 99.796c6.121 6.121 16.456 6.326 22.705 0.077 6.066-6.066 6.214-16.414-0.077-22.705l-99.796-99.796c2.999-6.266 4.678-13.284 4.678-20.695 0-26.51-21.49-48-48-48-7.41 0-14.428 1.679-20.695 4.678l-35.796-35.796c-6.121-6.121-16.456-6.326-22.705-0.077-6.066 6.066-6.214 16.414 0.077 22.705l35.796 35.796c-2.999 6.266-4.678 13.284-4.678 20.695 0 26.51 21.49 48 48 48 7.41 0 14.428-1.679 20.695-4.678v0 0zM512 705.6c36.516 7.412 64 39.696 64 78.4 0 44.183-35.817 80-80 80s-80-35.817-80-80c0-38.703 27.484-70.987 64-78.4v62.4h-32v32h96v-32h-32v-62.4zM256.52 320.072h79.857c8.668 0 15.695 7.422 15.695 16 0 8.837-6.882 16-15.695 16h-79.847c7.919 119.766 103.694 215.519 223.47 223.403v-79.78c0-8.668 7.422-15.695 16-15.695 8.837 0 16 6.882 16 15.695v79.78c119.776-7.884 215.551-103.636 223.47-223.403h-79.847c-8.668 0-15.695-7.422-15.695-16 0-8.837 6.882-16 15.695-16h79.857c-7.852-119.834-103.656-215.661-223.48-223.547v79.924c0 8.668-7.422 15.695-16 15.695-8.837 0-16-6.882-16-15.695v-79.924c-119.824 7.887-215.628 103.714-223.48 223.547zM496 0c185.568 0 336 150.432 336 336s-150.432 336-336 336c-185.568 0-336-150.432-336-336s150.432-336 336-336v0zM496 64c150.221 0 272 121.779 272 272s-121.779 272-272 272c-150.221 0-272-121.779-272-272s121.779-272 272-272v0zM496 320c8.837 0 16 7.163 16 16s-7.163 16-16 16c-8.837 0-16-7.163-16-16s7.163-16 16-16v0z" />
<glyph unicode="&#xe92d;" glyph-name="stop-watch2" d="M516.695 379.322l99.796 99.796c6.121 6.121 16.456 6.326 22.705 0.077 6.066-6.066 6.214-16.414-0.077-22.705l-99.796-99.796c2.999-6.266 4.678-13.284 4.678-20.695 0-26.51-21.49-48-48-48-7.41 0-14.428 1.679-20.695 4.678l-35.796-35.796c-6.121-6.121-16.456-6.326-22.705-0.077-6.066 6.066-6.214 16.414 0.077 22.705l35.796 35.796c-2.999 6.266-4.678 13.284-4.678 20.695 0 26.51 21.49 48 48 48 7.41 0 14.428-1.679 20.695-4.678v0 0zM767.284 584.657c60.060-65.49 96.716-152.793 96.716-248.657 0-203.241-164.759-368-368-368s-368 164.759-368 368c0 95.864 36.656 183.167 96.716 248.657l-39.343 39.343-22.627-22.627-22.627 22.627 67.882 67.882 22.627-22.627-22.627-22.627 39.343-39.343c48.95 44.891 110.085 76.707 177.873 89.914v0c-25.155 20.538-41.216 51.794-41.216 86.801 0 61.856 50.144 112 112 112s112-50.144 112-112c0-35.007-16.061-66.263-41.216-86.801 67.788-13.208 128.924-45.023 177.873-89.914l39.343 39.343-22.627 22.627 22.627 22.627 67.882-67.882-22.627-22.627-22.627 22.627-39.343-39.343zM512 705.6c36.516 7.412 64 39.696 64 78.4 0 44.183-35.817 80-80 80s-80-35.817-80-80c0-38.703 27.484-70.987 64-78.4v62.4h-32v32h96v-32h-32v-62.4zM256.52 320.072c7.852-119.834 103.656-215.661 223.48-223.547v0 79.924c0 8.813 7.163 15.695 16 15.695 8.578 0 16-7.027 16-15.695v-79.924c119.824 7.887 215.628 103.714 223.48 223.547h-79.857c-8.813 0-15.695 7.163-15.695 16 0 8.578 7.027 16 15.695 16h79.847c-7.919 119.766-103.694 215.519-223.47 223.403v0-79.78c0-8.813-7.163-15.695-16-15.695-8.578 0-16 7.027-16 15.695v79.78c-119.776-7.884-215.551-103.636-223.47-223.403h79.847c8.813 0 15.695-7.163 15.695-16 0-8.578-7.027-16-15.695-16h-79.857zM496 64c150.221 0 272 121.779 272 272s-121.779 272-272 272c-150.221 0-272-121.779-272-272s121.779-272 272-272v0zM496 320c8.837 0 16 7.163 16 16s-7.163 16-16 16c-8.837 0-16-7.163-16-16s7.163-16 16-16v0z" />
<glyph unicode="&#xe92e;" glyph-name="stop-watch3" d="M480 445.269v178.692c0 8.687 7.163 16.039 16 16.039 8.578 0 16-7.181 16-16.039v-178.692c18.643-6.589 32-24.369 32-45.269s-13.357-38.679-32-45.269v-50.692c0-8.687-7.163-16.039-16-16.039-8.578 0-16 7.181-16 16.039v50.692c-18.643 6.589-32 24.369-32 45.269s13.357 38.679 32 45.269v0 0zM744.657 671.284l39.343 39.343-22.627 22.627 22.627 22.627 67.882-67.882-22.627-22.627-22.627 22.627-39.343-39.343c60.060-65.49 96.716-152.793 96.716-248.657 0-203.241-164.759-368-368-368s-368 164.759-368 368c0 197.88 156.182 359.282 352 367.658v64.342h-32v32h96v-32h-32v-64.342c89.56-3.831 170.829-39.673 232.657-96.374zM496 64c185.568 0 336 150.432 336 336s-150.432 336-336 336c-185.568 0-336-150.432-336-336s150.432-336 336-336v0zM496 384c8.837 0 16 7.163 16 16s-7.163 16-16 16c-8.837 0-16-7.163-16-16s7.163-16 16-16v0z" />
<glyph unicode="&#xe92f;" glyph-name="stop-watch4" d="M480 445.269v178.692c0 8.687 7.163 16.039 16 16.039 8.578 0 16-7.181 16-16.039v-178.692c18.643-6.589 32-24.369 32-45.269s-13.357-38.679-32-45.269v-50.692c0-8.687-7.163-16.039-16-16.039-8.578 0-16 7.181-16 16.039v50.692c-18.643 6.589-32 24.369-32 45.269s13.357 38.679 32 45.269v0 0zM744.657 671.284c-61.828 56.701-143.097 92.543-232.657 96.374v0 64.342h32v32h-96v-32h32v-64.342c-195.818-8.377-352-169.779-352-367.658 0-203.241 164.759-368 368-368s368 164.759 368 368c0 95.864-36.656 183.167-96.716 248.657l39.343 39.343 22.627-22.627 22.627 22.627-67.882 67.882-22.627-22.627 22.627-22.627-39.343-39.343zM496 384c8.837 0 16 7.163 16 16s-7.163 16-16 16c-8.837 0-16-7.163-16-16s7.163-16 16-16v0z" />
<glyph unicode="&#xe930;" glyph-name="hockey-stick" d="M368 288c26.51 0 48 21.49 48 48s-21.49 48-48 48c-26.51 0-48-21.49-48-48s21.49-48 48-48v0 0zM526.188 156.656c-7.675-15.451-28.473-28.564-46.093-28.564h-192.19c-17.408 0-31.905 14.312-31.905 31.967v32.067c0 17.801 14.195 31.967 31.705 31.967h160.295l247.139 492.77c8.623 17.193 29.766 24.1 47.177 15.331l24.272-12.224c17.496-8.811 24.456-30.11 15.735-47.666l-256.135-515.647zM678.87 613.044l30.554-15.568 44.24 89.063c0.927 1.867 0.227 3.996-1.47 4.85l-24.272 12.224c-1.657 0.834-3.514 0.23-4.179-1.097l-44.873-89.473zM664.524 584.44l-196.774-392.347h-19.75c0 0-160 0.147-160 0.033 0 0 0.078-32.033-0.095-32.033h192.19c5.317 0 15.096 6.093 17.434 10.8l197.658 397.924-30.664 15.624z" />
<glyph unicode="&#xe931;" glyph-name="hockey-stick2" d="M720.5 547.9l-194.3-391.2c-7.7-15.5-28.5-28.6-46.1-28.6h-192.2c-17.4 0-31.9 14.3-31.9 32v32.1c0 17.8 14.2 32 31.7 32h160.3l184.8 368.5 87.7-44.8zM734.7 576.5l47.6 95.8c8.7 17.6 1.8 38.9-15.7 47.7l-24.3 12.2c-17.4 8.8-38.6 1.9-47.2-15.3l-48-95.7 87.6-44.7zM368 288.1c26.5 0 48 21.5 48 48s-21.5 48-48 48-48-21.5-48-48 21.5-48 48-48v0z" />
<glyph unicode="&#xe932;" glyph-name="hockey-sticks" d="M583.889 399.777l88.111-175.685h160.295c17.51 0 31.705-14.165 31.705-31.967v-32.067c0-17.655-14.497-31.967-31.905-31.967h-192.19c-17.621 0-38.418 13.113-46.093 28.564l-65.526 131.915 17.924 35.848 76.261-153.528c2.338-4.706 12.117-10.8 17.434-10.8h192.19c-0.173 0-0.095 32.033-0.095 32.033 0 0.114-160-0.033-160-0.033h-19.75l-86.233 171.941 17.872 35.744zM495.754 575.509l-17.872-35.744-22.406 44.676-30.664-15.624 33.687-67.818-17.924-35.848-102.898 207.153c-8.721 17.556-1.76 38.855 15.735 47.666l24.272 12.224c17.411 8.769 38.554 1.862 47.177-15.331l70.893-141.354zM441.13 613.044l-44.873 89.473c-0.665 1.327-2.522 1.931-4.179 1.097l-24.272-12.224c-1.696-0.854-2.397-2.984-1.47-4.85l44.24-89.063 30.554 15.568zM430.188 156.656c-7.675-15.451-28.473-28.564-46.093-28.564h-192.19c-17.408 0-31.905 14.312-31.905 31.967v32.067c0 17.801 14.195 31.967 31.705 31.967h160.295l247.139 492.77c8.623 17.193 29.766 24.1 47.177 15.331l24.272-12.224c17.496-8.811 24.456-30.11 15.735-47.666l-256.135-515.647zM582.87 613.044l30.554-15.568 44.24 89.063c0.927 1.867 0.227 3.996-1.47 4.85l-24.272 12.224c-1.657 0.834-3.514 0.23-4.179-1.097l-44.873-89.473zM380.604 209.747l-8.854-17.654h-19.75c0 0-160 0.147-160 0.033 0 0 0.078-32.033-0.095-32.033h192.19c5.317 0 15.096 6.093 17.434 10.8l197.658 397.924-30.664 15.624-187.92-374.693z" />
<glyph unicode="&#xe933;" glyph-name="hockey-sticks2" d="M627.738 554.361l-197.55-397.705c-7.675-15.451-28.473-28.564-46.093-28.564h-192.19c-17.408 0-31.905 14.312-31.905 31.967v32.067c0 17.801 14.195 31.967 31.705 31.967h160.295l188.048 374.949 87.69-44.68zM641.975 583.022l44.349 89.282c8.721 17.556 1.76 38.855-15.735 47.666l-24.272 12.224c-17.411 8.769-38.554 1.862-47.177-15.331l-44.745-89.217 87.58-44.624zM439.99 464.072l-44.622 89.833 87.692 44.681 12.112-24.151-55.182-110.363zM527.701 287.494l64.99-130.838c7.675-15.451 28.473-28.564 46.093-28.564h192.19c17.408 0 31.905 14.312 31.905 31.967v32.067c0 17.801-14.195 31.967-31.705 31.967h-160.295l-87.573 174.612-55.605-111.211zM381.131 582.566l-44.575 89.738c-8.721 17.556-1.76 38.855 15.735 47.666l24.272 12.224c17.411 8.769 38.554 1.862 47.177-15.331l44.973-89.672-87.582-44.625z" />
<glyph unicode="&#xe934;" glyph-name="shuttlecock" d="M385.371 90.719l60.857 517.281h99.544l60.68-515.783-110.452-84.238-110.629 82.74zM353.677 95.194l-95.773-84.473-63.037 63.936 125.133 533.344h94.007l-60.33-512.806zM638.567 93.119l-60.574 514.881h94.007l124.529-533.344-61.793-63.936-96.169 82.398zM704 608v80c0 114.875-93.125 208-208 208s-208-93.125-208-208v-80l-128-544 96-96 112 96 128-96 128 96 112-96 96 96-128 544zM320 640v48c0 97.202 78.798 176 176 176s176-78.798 176-176v-48h-352z" />
<glyph unicode="&#xe935;" glyph-name="shuttlecock2" d="M704 640v48c0 114.875-93.125 208-208 208s-208-93.125-208-208v-48h416zM545.772 608h-99.544l-62.326-529.767-2.683-24.147 114.781-86.086 114.781 86.086-2.672 24.045-62.338 529.869zM348.242 47.065l-92.242-79.065-96 96 128 544h126.007l-61.898-526.131-3.867-34.805zM642.175 608h62.615l127.21-544-95.408-96-91.673 79.065-3.832 34.702-61.528 526.233h62.615z" />
<glyph unicode="&#xe936;" glyph-name="golf" d="M384 688v-411.442c-131.677-21.93-224-73.025-224-132.558 0-79.529 164.759-144 368-144s368 64.471 368 144c0 79.529-164.759 144-368 144-39.053 0-76.685-2.38-112-6.791v0 244.505l416 178.286-448 192v-208zM416 249.627c35.031 4.127 72.729 6.373 112 6.373 185.568 0 336-50.144 336-112s-150.432-112-336-112c-185.568 0-336 50.144-336 112 0 44.678 78.483 83.246 192 101.222v-54.182c-36.516-4.447-64-23.818-64-47.040 0-26.51 35.817-48 80-48s80 21.49 80 48c0 23.222-27.484 42.592-64 47.040v58.587zM416 848l336-144-336-144v288zM656 128c26.51 0 48 14.327 48 32s-21.49 32-48 32c-26.51 0-48-14.327-48-32s21.49-32 48-32v0z" />
<glyph unicode="&#xe937;" glyph-name="golf2" d="M384 688v-560h32v397.714l416 178.286-448 192v-208zM448 284.588c25.756 2.234 52.526 3.412 80 3.412 203.241 0 368-64.471 368-144s-164.759-144-368-144c-203.241 0-368 64.471-368 144 0 54.583 77.608 102.072 192 126.494v-88.091c-19.431-8.757-32-22.7-32-38.404 0-26.51 35.817-48 80-48s80 21.49 80 48c0 15.704-12.569 29.646-32 38.404v102.184zM656 128c26.51 0 48 14.327 48 32s-21.49 32-48 32c-26.51 0-48-14.327-48-32s21.49-32 48-32v0z" />
<glyph unicode="&#xe938;" glyph-name="move" d="M575.196 255.204v0 0c36.516-7.412 64-39.696 64-78.4 0-44.183-35.817-80-80-80s-80 35.817-80 80c0 38.703 27.484 70.987 64 78.4v106.973l-256 256v-105.373h-32v160h160v-32h-105.652l265.652-267.991v-117.609zM287.196 282.177l-56.569-56.569-22.627 22.627 56.569 56.569-56.569 56.569 22.627 22.627 56.569-56.569 56.569 56.569 22.627-22.627-56.569-56.569 56.569-56.569-22.627-22.627-56.569 56.569zM735.196 506.177l-56.569-56.569-22.627 22.627 56.569 56.569-56.569 56.569 22.627 22.627 56.569-56.569 56.569 56.569 22.627-22.627-56.569-56.569 56.569-56.569-22.627-22.627-56.569 56.569zM575.196 730.177l-56.569-56.569-22.627 22.627 56.569 56.569-56.569 56.569 22.627 22.627 56.569-56.569 56.569 56.569 22.627-22.627-56.569-56.569 56.569-56.569-22.627-22.627-56.569 56.569zM559.196 128.804c26.51 0 48 21.49 48 48s-21.49 48-48 48c-26.51 0-48-21.49-48-48s21.49-48 48-48v0z" />
<glyph unicode="&#xe939;" glyph-name="move2" d="M575.196 255.204v117.609l-265.652 267.991h105.652v32h-160v-160h32v105.373l256-256v-106.973c-36.516-7.412-64-39.696-64-78.4 0-44.183 35.817-80 80-80s80 35.817 80 80c0 38.703-27.484 70.987-64 78.4v0zM287.196 282.177l-56.569-56.569-22.627 22.627 56.569 56.569-56.569 56.569 22.627 22.627 56.569-56.569 56.569 56.569 22.627-22.627-56.569-56.569 56.569-56.569-22.627-22.627-56.569 56.569zM735.196 506.177l-56.569-56.569-22.627 22.627 56.569 56.569-56.569 56.569 22.627 22.627 56.569-56.569 56.569 56.569 22.627-22.627-56.569-56.569 56.569-56.569-22.627-22.627-56.569 56.569zM575.196 730.177l-56.569-56.569-22.627 22.627 56.569 56.569-56.569 56.569 22.627 22.627 56.569-56.569 56.569 56.569 22.627-22.627-56.569-56.569 56.569-56.569-22.627-22.627-56.569 56.569z" />
<glyph unicode="&#xe93a;" glyph-name="clipboard-move" d="M672 222.4v0 0c36.516-7.412 64-39.696 64-78.4 0-44.183-35.817-80-80-80s-80 35.817-80 80c0 38.703 27.484 70.987 64 78.4v74.973l-256 256v-105.373h-32v160h160v-32h-105.652l265.652-267.991v-85.609zM416 249.373l-56.569-56.569-22.627 22.627 56.569 56.569-56.569 56.569 22.627 22.627 56.569-56.569 56.569 56.569 22.627-22.627-56.569-56.569 56.569-56.569-22.627-22.627-56.569 56.569zM672 505.373l-56.569-56.569-22.627 22.627 56.569 56.569-56.569 56.569 22.627 22.627 56.569-56.569 56.569 56.569 22.627-22.627-56.569-56.569 56.569-56.569-22.627-22.627-56.569 56.569zM448 800v32.067c0 35.189 28.724 63.933 64.156 63.933h31.688c35.551 0 64.156-28.624 64.156-63.933v-32.067h64.142c17.624 0 31.858-14.312 31.858-31.967v-32.067c0-17.801-14.264-31.967-31.858-31.967h-288.283c-17.624 0-31.858 14.312-31.858 31.967v32.067c0 17.801 14.264 31.967 31.858 31.967h64.142zM416 832h-31.912c-35.343 0-64.004-28.521-64.088-64h-32.083c-35.301 0-63.918-28.472-63.918-64.115v-671.77c0-35.41 28.51-64.115 63.918-64.115h480.165c35.301 0 63.918 28.472 63.918 64.115v671.77c0 35.41-28.51 64.115-63.918 64.115h-32.083c-0.084 35.361-28.645 64-64.088 64h-31.912c-0.029 53.024-43.207 96-96.296 96h-31.408c-53.165 0-96.267-42.82-96.296-96v0 0zM736 736h32.001c17.448 0 31.999-14.371 31.999-32.098v-671.803c0-18.053-14.326-32.098-31.999-32.098h-480.003c-17.448 0-31.999 14.371-31.999 32.098v671.803c0 18.053 14.326 32.098 31.999 32.098h32.001c0.084-35.361 28.645-64 64.088-64h287.823c35.343 0 64.004 28.521 64.088 64v0 0zM528 800c8.837 0 16 7.163 16 16s-7.163 16-16 16c-8.837 0-16-7.163-16-16s7.163-16 16-16v0zM656 96c26.51 0 48 21.49 48 48s-21.49 48-48 48c-26.51 0-48-21.49-48-48s21.49-48 48-48v0z" />
<glyph unicode="&#xe93b;" glyph-name="clipboard-move2" d="M448 800v32.067c0 35.189 28.724 63.933 64.156 63.933h31.688c35.551 0 64.156-28.624 64.156-63.933v-32.067h64.142c17.624 0 31.858-14.312 31.858-31.967v-32.067c0-17.801-14.264-31.967-31.858-31.967h-288.283c-17.624 0-31.858 14.312-31.858 31.967v32.067c0 17.801 14.264 31.967 31.858 31.967h64.142zM736 768h32.083c35.408 0 63.918-28.705 63.918-64.115v-671.77c0-35.643-28.617-64.115-63.918-64.115h-480.165c-35.408 0-63.918 28.705-63.918 64.115v671.77c0 35.643 28.617 64.115 63.918 64.115h32.083c0-0.052 0-0.104 0-0.156v-31.688c0-35.432 28.593-64.156 64.088-64.156h287.823c35.395 0 64.088 28.605 64.088 64.156v31.688c0 0.052 0 0.104 0 0.156v0 0zM672 190.4v85.609l-265.652 267.991h105.652v32h-160v-160h32v105.373l256-256v-74.973c-36.516-7.412-64-39.696-64-78.4 0-44.183 35.817-80 80-80s80 35.817 80 80c0 38.703-27.484 70.987-64 78.4v0 0zM416 217.373l56.569-56.569 22.627 22.627-56.569 56.569 56.569 56.569-22.627 22.627-56.569-56.569-56.569 56.569-22.627-22.627 56.569-56.569-56.569-56.569 22.627-22.627 56.569 56.569zM672 473.373l56.569-56.569 22.627 22.627-56.569 56.569 56.569 56.569-22.627 22.627-56.569-56.569-56.569 56.569-22.627-22.627 56.569-56.569-56.569-56.569 22.627-22.627 56.569 56.569zM656 64c26.51 0 48 21.49 48 48s-21.49 48-48 48c-26.51 0-48-21.49-48-48s21.49-48 48-48v0zM528 800c8.837 0 16 7.163 16 16s-7.163 16-16 16c-8.837 0-16-7.163-16-16s7.163-16 16-16v0z" />
<glyph unicode="&#xe93c;" glyph-name="award" d="M320 425.334v0 0c-58.92 52.735-96 129.37-96 214.666 0 159.058 128.942 288 288 288s288-128.942 288-288c0-85.296-37.080-161.931-96-214.666v-457.334l-192 192-192-192v457.334zM352 400.498v-355.697l160 160 160-160v355.697c-45.763-30.633-100.795-48.498-160-48.498s-114.237 17.865-160 48.498v0 0zM512 384c141.385 0 256 114.615 256 256s-114.615 256-256 256c-141.385 0-256-114.615-256-256s114.615-256 256-256v0zM512 448v0c-106.039 0-192 85.961-192 192s85.961 192 192 192c106.039 0 192-85.961 192-192s-85.961-192-192-192zM512 480c88.366 0 160 71.634 160 160s-71.634 160-160 160c-88.366 0-160-71.634-160-160s71.634-160 160-160v0z" />
<glyph unicode="&#xe93d;" glyph-name="award2" d="M320 383.977v-415.977l192 192 192-192v415.977c-53.482-40.172-119.961-63.977-192-63.977s-138.518 23.804-192 63.977v0 0zM512 352v0c-159.058 0-288 128.942-288 288s128.942 288 288 288c159.058 0 288-128.942 288-288s-128.942-288-288-288zM512 448c106.039 0 192 85.961 192 192s-85.961 192-192 192c-106.039 0-192-85.961-192-192s85.961-192 192-192v0zM512 480c88.366 0 160 71.634 160 160s-71.634 160-160 160c-88.366 0-160-71.634-160-160s71.634-160 160-160v0z" />
<glyph unicode="&#xe93e;" glyph-name="award3" d="M320 425.334v0 0c-58.92 52.735-96 129.37-96 214.666 0 159.058 128.942 288 288 288s288-128.942 288-288c0-85.296-37.080-161.931-96-214.666v-457.334l-192 192-192-192v457.334zM352 400.498v-355.697l160 160 160-160v355.697c-45.763-30.633-100.795-48.498-160-48.498s-114.237 17.865-160 48.498v0 0zM512 384c141.385 0 256 114.615 256 256s-114.615 256-256 256c-141.385 0-256-114.615-256-256s114.615-256 256-256v0zM512 553.846l-112-73.846 48 128-96 64h112l48 128 48-128h112l-96-64 48-128-112 73.846z" />
<glyph unicode="&#xe93f;" glyph-name="award4" d="M320 383.977v-415.977l192 192 192-192v415.977c-53.482-40.172-119.961-63.977-192-63.977s-138.518 23.804-192 63.977v0 0zM512 352c159.058 0 288 128.942 288 288s-128.942 288-288 288c-159.058 0-288-128.942-288-288s128.942-288 288-288v0zM512 553.846l-112-73.846 48 128-96 64h112l48 128 48-128h112l-96-64 48-128-112 73.846z" />
<glyph unicode="&#xe940;" glyph-name="award5" d="M512.231 320.001l-140.984-367.275-55.22 124.027-124.027-55.22 139.295 362.876c-64.959 52.806-106.462 133.352-106.462 223.591 0 159.058 128.942 288 288 288s288-128.942 288-288c0-90.239-41.503-170.785-106.462-223.591l139.295-362.876-124.027 55.22-55.22-124.027-140.984 367.275c-0.201 0-0.402-0.001-0.603-0.001s-0.402 0-0.603 0.001v0 0zM478.722 321.999v0 0c-43.999 5.192-84.96 20.303-120.587 43.034l-108.737-283.27 82.685 36.814 36.814-82.685 109.826 286.107zM667.533 365.033v0 0c-35.627-22.731-76.589-37.842-120.587-43.034l109.826-286.107 36.814 82.685 82.685-36.814-108.737 283.27zM512.834 352c141.385 0 256 114.615 256 256s-114.615 256-256 256c-141.385 0-256-114.615-256-256s114.615-256 256-256v0zM512.834 416v0c-106.039 0-192 85.961-192 192s85.961 192 192 192c106.039 0 192-85.961 192-192s-85.961-192-192-192zM512.834 448c88.366 0 160 71.634 160 160s-71.634 160-160 160c-88.366 0-160-71.634-160-160s71.634-160 160-160v0z" />
<glyph unicode="&#xe941;" glyph-name="award6" d="M500.044 288.251l-128.796-335.525-55.22 124.027-124.027-55.22 127.293 331.609c50.579-38.469 112.955-62.225 180.751-64.89v0zM706.375 353.141l127.293-331.609-124.027 55.22-55.22-124.027-128.796 335.525c67.795 2.665 130.172 26.421 180.751 64.89v0 0zM512.834 320v0c-159.058 0-288 128.942-288 288s128.942 288 288 288c159.058 0 288-128.942 288-288s-128.942-288-288-288zM512.834 416c106.039 0 192 85.961 192 192s-85.961 192-192 192c-106.039 0-192-85.961-192-192s85.961-192 192-192v0zM512.834 448c88.366 0 160 71.634 160 160s-71.634 160-160 160c-88.366 0-160-71.634-160-160s71.634-160 160-160v0z" />
<glyph unicode="&#xe942;" glyph-name="award7" d="M512.231 320.001l-140.984-367.275-55.22 124.027-124.027-55.22 139.295 362.876c-64.959 52.806-106.462 133.352-106.462 223.591 0 159.058 128.942 288 288 288s288-128.942 288-288c0-90.239-41.503-170.785-106.462-223.591l139.295-362.876-124.027 55.22-55.22-124.027-140.984 367.275c-0.201 0-0.402-0.001-0.603-0.001s-0.402 0-0.603 0.001v0 0zM478.722 321.999v0 0c-43.999 5.192-84.96 20.303-120.587 43.034l-108.737-283.27 82.685 36.814 36.814-82.685 109.826 286.107zM667.533 365.033v0 0c-35.627-22.731-76.589-37.842-120.587-43.034l109.826-286.107 36.814 82.685 82.685-36.814-108.737 283.27zM512.834 352c141.385 0 256 114.615 256 256s-114.615 256-256 256c-141.385 0-256-114.615-256-256s114.615-256 256-256v0zM512.834 521.846l-112-73.846 48 128-96 64h112l48 128 48-128h112l-96-64 48-128-112 73.846z" />
<glyph unicode="&#xe943;" glyph-name="award8" d="M500.044 288.251l-128.796-335.525-55.22 124.027-124.027-55.22 127.293 331.609c50.579-38.469 112.955-62.225 180.751-64.89v0zM706.375 353.141l127.293-331.609-124.027 55.22-55.22-124.027-128.796 335.525c67.795 2.665 130.172 26.421 180.751 64.89v0 0zM512.834 320c159.058 0 288 128.942 288 288s-128.942 288-288 288c-159.058 0-288-128.942-288-288s128.942-288 288-288v0zM512.834 521.846l-112-73.846 48 128-96 64h112l48 128 48-128h112l-96-64 48-128-112 73.846z" />
<glyph unicode="&#xe944;" glyph-name="medal5" d="M488.066 556.621v0 0c7.534 0.591 15.15 0.892 22.837 0.892 7.592 0 15.116-0.294 22.561-0.871l150.038 371.357 29.621-11.968-146.989-363.809c43.266-8.403 83.074-26.492 117.076-51.919l148.592 367.778 29.719-12.007-152.524-377.509c55.371-52.486 89.906-126.736 89.906-209.053 0-159.058-128.942-288-288-288s-288 128.942-288 288c0 82.214 34.449 156.382 89.7 208.857l-152.603 377.705 29.67 11.987 148.663-367.955c33.976 25.468 73.766 43.602 117.021 52.054l-147.005 363.851 29.67 11.987 150.047-371.379zM510.903 13.514c141.385 0 256 114.615 256 256s-114.615 256-256 256c-141.385 0-256-114.615-256-256s114.615-256 256-256v0zM510.903 77.514v0c-106.039 0-192 85.961-192 192s85.961 192 192 192c106.039 0 192-85.961 192-192s-85.961-192-192-192zM510.903 109.514c88.366 0 160 71.634 160 160s-71.634 160-160 160c-88.366 0-160-71.634-160-160s71.634-160 160-160v0z" />
<glyph unicode="&#xe945;" glyph-name="medal6" d="M545.976 587.614l137.525 340.386 178.019-71.924-139.74-345.869c-48.049 42.131-108.822 70.105-175.804 77.407v0 0zM299.815 510.022l-139.815 346.053 178.019 71.924 137.537-340.416c-66.972-7.359-127.725-35.385-175.742-77.561v0 0zM510.903-18.486v0c-159.058 0-288 128.942-288 288s128.942 288 288 288c159.058 0 288-128.942 288-288s-128.942-288-288-288zM510.903 77.514c106.039 0 192 85.961 192 192s-85.961 192-192 192c-106.039 0-192-85.961-192-192s85.961-192 192-192v0zM510.903 109.514c88.366 0 160 71.634 160 160s-71.634 160-160 160c-88.366 0-160-71.634-160-160s71.634-160 160-160v0z" />
<glyph unicode="&#xe946;" glyph-name="medal7" d="M488.066 556.621v0 0c7.534 0.591 15.15 0.892 22.837 0.892 7.592 0 15.116-0.294 22.561-0.871l150.038 371.357 29.621-11.968-146.989-363.809c43.266-8.403 83.074-26.492 117.076-51.919l148.592 367.778 29.719-12.007-152.524-377.509c55.371-52.486 89.906-126.736 89.906-209.053 0-159.058-128.942-288-288-288s-288 128.942-288 288c0 82.214 34.449 156.382 89.7 208.857l-152.603 377.705 29.67 11.987 148.663-367.955c33.976 25.468 73.766 43.602 117.021 52.054l-147.005 363.851 29.67 11.987 150.047-371.379zM510.903 13.514c141.385 0 256 114.615 256 256s-114.615 256-256 256c-141.385 0-256-114.615-256-256s114.615-256 256-256v0 0zM510.903 183.36l-112-73.846 48 128-96 64h112l48 128 48-128h112l-96-64 48-128-112 73.846z" />
<glyph unicode="&#xe947;" glyph-name="medal8" d="M545.976 587.614l137.525 340.386 178.019-71.924-139.74-345.869c-48.049 42.131-108.822 70.105-175.804 77.407v0 0zM299.815 510.022l-139.815 346.053 178.019 71.924 137.537-340.416c-66.972-7.359-127.725-35.385-175.742-77.561v0 0zM510.903-18.486c159.058 0 288 128.942 288 288s-128.942 288-288 288c-159.058 0-288-128.942-288-288s128.942-288 288-288v0 0zM510.903 183.36l-112-73.846 48 128-96 64h112l48 128 48-128h112l-96-64 48-128-112 73.846z" />
<glyph unicode="&#xe948;" glyph-name="boxing-glove" d="M415.471 542.456v0c1.293-0.46 2.677-0.947 4.147-1.459 11.754-4.093 24.609-8.191 38.123-12.012 23.103-6.533 45.659-11.558 66.666-14.481 13.233-1.842 25.571-2.803 36.831-2.803 29.268 0 59.639 6.001 89.198 16.031 10.395 3.527 19.927 7.303 28.367 11.066 4.983 2.222 8.432 3.912 10.121 4.805l14.963-28.286c-2.3-1.217-6.389-3.22-12.052-5.745-9.305-4.149-19.747-8.285-31.117-12.143-32.624-11.070-66.319-17.728-99.48-17.728-12.839 0-26.627 1.075-41.242 3.109-22.607 3.146-46.549 8.48-70.963 15.384-14.161 4.005-27.614 8.293-39.939 12.585-1.669 0.581-3.237 1.134-4.7 1.656-30.919 0.463-116.394-3.746-116.394-64.432 0-100.164 96-94.887 124.8-192h355.2v320.167c0 88.273-71.657 159.833-160.035 159.833h-31.93c-88.385 0-160.23-71.491-160.472-159.811l-0.092-33.734zM384 224c0 98.445-127.705 96-128 224-0.221 96 128 96 128 96v32.094c0 105.943 86.037 191.906 192.17 191.906h31.66c105.974 0 192.17-85.869 192.17-191.794v-416.206c0-35.593-28.693-64-64.088-64h-287.823c-35.495 0-64.088 28.654-64.088 64v64zM416 224v-64.033c0-17.655 14.235-31.967 31.858-31.967h288.283c17.595 0 31.858 14.165 31.858 31.967v64.033h-352zM448 192v-32h128v32h-128z" />
<glyph unicode="&#xe949;" glyph-name="boxing-glove2" d="M256 448c0.259-112.354 98.684-124.204 122.742-192h421.258v320.206c0 105.925-86.195 191.794-192.17 191.794h-31.66c-106.132 0-192.17-85.964-192.17-191.906v-18.688c15.46-7.697 27.16-13.393 28.334-13.82 49.433-17.964 104.591-31.887 148.905-31.887 29.268 0 59.639 6.001 89.198 16.031 10.395 3.527 19.927 7.303 28.367 11.066 4.983 2.222 8.432 3.912 10.121 4.805l14.963-28.286c-2.3-1.217-6.389-3.22-12.052-5.745-9.305-4.149-19.747-8.285-31.117-12.143-32.624-11.070-66.319-17.728-99.48-17.728-49.064 0-107.115 14.654-159.834 33.812-3.025 1.099-13.361 6.133-32.161 15.495-7.276 3.625-14.391 7.187-21.481 10.75-38.037-7.619-91.905-29.503-91.762-91.756v0zM384 224h416v-64c0-35.593-28.693-64-64.088-64h-287.823c-35.495 0-64.088 28.654-64.088 64v64zM448 192v-32h128v32h-128z" />
<glyph unicode="&#xe94a;" glyph-name="whistle" d="M262.817 402.889v0 0c-10.767 8.225-24.221 13.111-38.817 13.111-35.346 0-64-28.654-64-64s28.654-64 64-64c14.595 0 28.050 4.886 38.817 13.111 22.302-81.341 96.763-141.111 185.183-141.111 106.039 0 192 85.961 192 192 0 13.801-1.456 27.262-4.223 40.238l260.223 55.762v96h-320v-64h-96v64h-32c-88.421 0-162.881-59.77-185.183-141.111zM608 512h256v-38.4l-269.152-57.971c8.461-19.501 13.152-41.017 13.152-63.629 0-88.366-71.634-160-160-160s-160 71.634-160 160c0 77.326 54.854 141.84 127.772 156.753 10.41 2.129 21.188 3.247 32.228 3.247v-64h160v64zM224 384v0c17.796 0 32-14.327 32-32 0-17.796-14.327-32-32-32-17.796 0-32 14.327-32 32 0 17.796 14.327 32 32 32zM512 736v-128h32v128h-32zM675.83 703.328l-67.83-108.55 27.138-16.957 67.83 108.55-27.138 16.957zM379.138 703.328l67.83-108.55-27.138-16.957-67.83 108.55 27.138 16.957z" />
<glyph unicode="&#xe94b;" glyph-name="whistle2" d="M262.817 402.889c22.302 81.341 96.763 141.111 185.183 141.111h32v-64h96v64h320v-96l-260.223-55.762c2.767-12.976 4.223-26.437 4.223-40.238 0-106.039-85.961-192-192-192-88.421 0-162.881 59.77-185.183 141.111-10.767-8.225-24.221-13.111-38.817-13.111-35.346 0-64 28.654-64 64s28.654 64 64 64c14.595 0 28.050-4.886 38.817-13.111v0 0zM224 384c-17.673 0-32-14.204-32-32 0-17.673 14.204-32 32-32 17.673 0 32 14.204 32 32 0 17.673-14.204 32-32 32v0zM512 736v-128h32v128h-32zM675.83 703.328l-67.83-108.55 27.138-16.957 67.83 108.55-27.138 16.957zM379.138 703.328l67.83-108.55-27.138-16.957-67.83 108.55 27.138 16.957z" />
<glyph unicode="&#xe94c;" glyph-name="volleyball-water" d="M175.663 209.012l15.333 7.423c-39.875 62.21-62.997 136.187-62.997 215.565 0 220.914 179.086 400 400 400s400-179.086 400-400c0-93.013-31.747-178.61-84.996-246.549-2.672-1.15 4.107 1.733 10.123 4.54 18.325 8.55 36.299 18.743 53.899 30.427 19.937 13.236 37.673 27.41 52.974 41.57v-42.314c-10.914-8.854-22.684-17.557-35.275-25.916-115.906-76.948-248.908-94.638-389.235-15.704-128.701 72.394-258.077 56.001-378.147-15.654-22.804-13.609-43.3-28.192-61.139-42.753-0.068-0.055-0.203 40.343-0.203 40.343 13.836 10.221 28.847 20.282 44.944 29.888 10.573 6.31 21.227 12.223 31.956 17.718 0.958 0.491 2.764 1.415 2.764 1.415v0zM346.277 256.583v0c-5.272-0.261 4.289 0.328 14.371 0.427 62.896 0.618 126.816-15.226 190.53-51.065 0.704-0.396 2.006-1.086 3.705-1.97 67.232 54.652 122.173 126.042 157.715 210.857-54.977 20.518-114.292 32.136-176.193 33.102-48.484-81.061-114.379-145.52-190.128-191.351zM782.037 165.749c39.226 37.437 70.191 83.455 89.883 135.041 3.342 8.755 6.676 18.98 5.403 15.145-39.859 35.193-85.073 64.461-134.263 86.426-35.671-85.245-89.813-157.716-156.018-214.423-0.308 0.136-0.617 0.273-0.925 0.41 62.2-27.671 122.315-34.916 179.692-25.668 8.679 1.399 19.443 3.766 16.229 3.068v0zM525.624 32.007c0.791-0.005 1.583-0.007 2.376-0.007 0.796 0 1.592 0.002 2.387 0.007h-4.763zM249.184 672.187v0 0c2.237 2.594-9.591-11.249-17.059-21.329-45.321-61.169-72.125-136.883-72.125-218.859 0-59.182 13.97-115.1 38.793-164.638 7.553-15.074 21.495-37.305 19.516-34.229 52.826 17.058 103.055 42.424 148.545 75.521-82.326 107.864-120.9 236.472-117.67 363.534zM284.223 707.68c-12.112-131.273 23.281-266.886 108.627-378.836 44.962 37.242 84.431 82.602 116.052 135.448-57.245 102.783-78.677 216.081-68.21 325.289 2.427 0.59-10.191-2.522-18.75-5.094-42.471-12.761-81.71-32.988-116.194-59.156-11.83-8.977-25.685-21.331-21.526-17.65v0 0zM857.965 595.117v0 0c1.013-2.045-8.812 17.167-15.589 28.274-64.614 105.907-181.238 176.609-314.376 176.609-10.128 0-20.161-0.409-30.082-1.212-10.94-0.885-27.059-3.188-24.377-2.79-4.301-37.741-4.558-76.059-0.586-114.271 139.273 18.089 274.379-15.522 385.010-86.61zM880.167 539.116c-110.741 86.093-254.243 129.228-402.784 109.995 9.717-57.884 29.315-115.076 59.436-169.179 133.094-2.055 254.923-50.541 350.002-129.975-0.598-2.625 3.21 14.65 4.965 26.173 2.775 18.218 4.214 36.876 4.214 55.87 0 30.448-3.698 60.033-10.669 88.329-3.248 13.185-7.202 25.498-5.164 18.787v0 0zM191.334 120.591c114.937 53.286 237.769 58.021 359.844-10.646 111.406-62.666 216.668-59.066 312.156-11.004v-35.491c-100.57-45.867-211.698-46.727-327.844 18.605-116.641 65.61-233.836 58.293-344.156 3.007v35.53z" />
<glyph unicode="&#xe94d;" glyph-name="volleyball-water2" d="M635.378 234.506c44.362 48.056 81.137 104.418 107.682 167.855 59.989-26.786 114.064-64.435 159.724-110.446 0.912 2.439-2.539-6.804-5.434-13.745-80.474-50.522-168.58-69.773-261.972-43.664v0 0zM600.999 246.1c46.333 47.511 84.574 104.241 111.599 168.733-54.977 20.518-114.292 32.136-176.193 33.102-30.399-50.823-67.641-95.121-109.866-132.392 41.406-7.341 83.066-22.212 124.639-45.597 16.75-9.422 33.361-17.346 49.821-23.846v0 0zM357.708 320.969c-86.412 119.631-120.593 263.059-105.094 401.139 1.123 1.066-13.75-13.446-21.745-22.311-63.942-70.901-102.868-164.803-102.868-267.797 0-58.934 12.745-114.89 35.629-165.264 62.568 33.579 127.742 53.041 194.078 54.234v0 0zM921.647 503.392c-114.984 109.544-276.406 167.453-444.264 145.719 9.717-57.884 29.315-115.076 59.436-169.179 146.035-2.255 278.508-60.409 376.964-154.009-0.548-1.996 2.817 10.478 4.68 18.855 6.244 28.077 9.537 57.265 9.537 87.222 0 15.363-0.866 30.524-2.552 45.436-1.847 16.337-5.141 33.396-3.8 25.956v0zM907.173 559.731c-118.402 94.921-273.537 142.866-434.217 121.997-5.133 49.389-3.204 98.954 5.394 147.221-1.641-0.203 5.747 0.706 11.124 1.22 12.679 1.212 25.53 1.831 38.527 1.831 167.707 0 311.309-103.209 370.752-249.577 4.615-11.363 9.774-26.715 8.42-22.693v0zM290.482 753.879c-26.022-145.169 6.96-299.888 102.367-425.035 44.962 37.242 84.431 82.602 116.052 135.448-63.175 113.43-82.733 239.666-63.934 359.079 1.010 0.213-5.644-1.209-9.942-2.232-45.316-10.787-87.643-29.285-125.517-54.029-9.076-5.93-21.519-15.074-19.025-13.23v0zM96 159.991c13.836 10.221 28.847 20.282 44.944 29.888 129.022 76.997 270.126 94.877 410.234 16.066 128.678-72.381 249.158-56.356 355.848 14.473 19.937 13.236 37.673 27.41 52.974 41.57v-42.314c-10.914-8.854-22.684-17.557-35.275-25.916-115.906-76.948-248.908-94.638-389.235-15.704-128.701 72.394-258.077 56.001-378.147-15.654-22.804-13.609-43.3-28.192-61.139-42.753-0.068-0.055-0.136-0.111-0.203-0.166v40.509zM191.334 120.591c114.937 53.286 237.769 58.021 359.844-10.646 111.406-62.666 216.668-59.066 312.156-11.004v-35.491c-100.57-45.867-211.698-46.727-327.844 18.605-116.641 65.61-233.836 58.293-344.156 3.007v35.53z" />
<glyph unicode="&#xe94e;" glyph-name="checkered-flag" d="M768.562 402.667c0 0-57.8-29.279-147.495-14.722-6.211 1.008-15.166 3.096-13.068 2.667v127.851c-25.751 4.628-53.432 12.638-82.119 25.556-27.78 12.51-53.882 20.608-77.881 25.551v-127.303c3.321-0.592-4.299 0.157-11.638 1.198-83.25 11.807-148.362-9.276-148.362-9.276v128.637c0.004 0.001 71.281 23.257 160 7.44v127.303c-97.262 20.031-159.996-11.762-160-11.764v127.188c0 0 62.729 31.549 160 11.726v-126.453c25.643-4.571 52.743-12.407 80-25.012 28.518-13.187 55.348-21.604 80-26.643v127.362c92.73-16.643 160.562 10.22 160.562 10.22v-129.264c-0.36 1.217-0.562 1.888-0.562 1.888-0.004-0.002-67.573-26.964-160-10.354v-127.851c22.708-4.642 43.568-6.418 62.197-6.418 60.769 0 97.8 18.902 97.803 18.904l0.562-128.431zM256 32.194h32v366.565c44.073 15.856 130.577 33.089 240-14.565 160.725-69.996 272 0 272 0v448c0 0-111.24-71.563-272 0s-272 0-272 0v-800z" />
<glyph unicode="&#xe94f;" glyph-name="checkered-flag2" d="M608 773.975v-127.362c96.781-19.784 159.996 12.483 160 12.485l0.562 0.46v-130.74h-0.562c-0.004-0.002-67.573-26.964-160-10.354v-128.125c-24.578 5.015-51.312 13.359-79.719 26.394-27.356 12.553-54.553 20.345-80.281 24.882v127.956c-97.262 20.031-159.996-11.762-160-11.764v133.020c0.004 0.001 71.281 23.257 160 7.44v126.453c24.079-4.907 50.275-12.962 78.16-25.423 28.581-12.772 56.165-20.715 81.84-25.323zM256 576.194v-544h32v366.565c44.073 15.856 130.577 33.089 240-14.565 160.725-69.996 272 0 272 0v448c0 0-111.24-71.563-272 0s-272 0-272 0v-256zM448 697.571v0 0c24-4.943 50.101-13.041 77.881-25.551 28.687-12.918 56.367-20.928 82.119-25.556v-127.851c-24.652 5.039-51.482 13.456-80 26.643-27.257 12.605-54.357 20.44-80 25.012v127.303z" />
<glyph unicode="&#xe950;" glyph-name="target-arrow" d="M288 199.326l-32-32v-103.326h-32v71.326l-41.373-41.373-22.627 22.627 43.419 43.419h-75.419v32h107.419l32 32h-75.419v32h107.419l170.29 170.29-21.71 21.71 96 32-32-96-19.663 19.663-172.337-172.337v-103.326h-32v71.326zM248.926 288c-36.003 55.218-56.926 121.166-56.926 192 0 194.404 157.596 352 352 352s352-157.596 352-352c0-194.404-157.596-352-352-352-70.834 0-136.782 20.923-192 56.926v34.298l2.727 2.727c53.007-38.945 118.454-61.951 189.273-61.951 176.731 0 320 143.269 320 320s-143.269 320-320 320c-176.731 0-320-143.269-320-320 0-71.278 23.304-137.113 62.71-190.302l-1.698-1.698h-36.085zM448.106 475.459c-0.070 1.505-0.106 3.019-0.106 4.541 0 53.019 42.981 96 96 96s96-42.981 96-96c0-53.019-42.981-96-96-96-1.522 0-3.036 0.035-4.541 0.106l9.031 31.608 0.476 0.476c33.026 2.534 59.034 30.135 59.034 63.81 0 35.346-28.654 64-64 64-33.793 0-61.469-26.191-63.836-59.382l-32.059-9.16zM355.676 358.665c-22.574 34.965-35.676 76.62-35.676 121.335 0 123.712 100.288 224 224 224s224-100.288 224-224c0-123.712-100.288-224-224-224-44.252 0-85.507 12.832-120.246 34.978l23.275 23.275c28.459-16.686 61.598-26.252 96.972-26.252 106.039 0 192 85.961 192 192s-85.961 192-192 192c-106.039 0-192-85.961-192-192 0-35.84 9.82-69.386 26.916-98.095l-23.24-23.24z" />
<glyph unicode="&#xe951;" glyph-name="target-arrow2" d="M288 199.326l-32-32v-103.326h-32v71.326l-41.373-41.373-22.627 22.627 43.419 43.419h-75.419v32h107.419l32 32h-75.419v32h107.419l170.29 170.29-21.71 21.71 96 32-32-96-19.663 19.663-172.337-172.337v-103.326h-32v71.326zM248.926 288c-36.003 55.218-56.926 121.166-56.926 192 0 194.404 157.596 352 352 352s352-157.596 352-352c0-194.404-157.596-352-352-352-70.834 0-136.782 20.923-192 56.926v34.298l71.754 71.754c34.74-22.146 75.995-34.978 120.246-34.978 123.712 0 224 100.288 224 224s-100.288 224-224 224c-123.712 0-224-100.288-224-224 0-44.715 13.102-86.37 35.676-121.335l-70.665-70.665h-36.085zM495.899 363.123l-48.871-48.871c28.459-16.686 61.598-26.252 96.972-26.252 106.039 0 192 85.961 192 192s-85.961 192-192 192c-106.039 0-192-85.961-192-192 0-35.84 9.82-69.386 26.916-98.095v0l48.832 48.832-30.447 30.207 50.805 14.516c-0.070 1.505-0.106 3.019-0.106 4.541 0 53.019 42.981 96 96 96s96-42.981 96-96c0-53.019-42.981-96-96-96-1.522 0-3.036 0.035-4.541 0.106l-14.292-50.020-29.269 29.038zM548.618 416.164c33.19 2.367 59.382 30.043 59.382 63.836 0 35.346-28.654 64-64 64-33.793 0-61.469-26.191-63.836-59.382l95.836 27.382-27.382-95.836z" />
<glyph unicode="&#xe952;" glyph-name="target" d="M512 96v0c-194.404 0-352 157.596-352 352s157.596 352 352 352c194.404 0 352-157.596 352-352s-157.596-352-352-352zM512 128c176.731 0 320 143.269 320 320s-143.269 320-320 320c-176.731 0-320-143.269-320-320s143.269-320 320-320v0zM512 224v0c-123.712 0-224 100.288-224 224s100.288 224 224 224c123.712 0 224-100.288 224-224s-100.288-224-224-224zM512 256c106.039 0 192 85.961 192 192s-85.961 192-192 192c-106.039 0-192-85.961-192-192s85.961-192 192-192v0zM512 352v0c-53.019 0-96 42.981-96 96s42.981 96 96 96c53.019 0 96-42.981 96-96s-42.981-96-96-96zM512 384c35.346 0 64 28.654 64 64s-28.654 64-64 64c-35.346 0-64-28.654-64-64s28.654-64 64-64v0z" />
<glyph unicode="&#xe953;" glyph-name="target2" d="M512 96v0c-194.404 0-352 157.596-352 352s157.596 352 352 352c194.404 0 352-157.596 352-352s-157.596-352-352-352zM512 224c123.712 0 224 100.288 224 224s-100.288 224-224 224c-123.712 0-224-100.288-224-224s100.288-224 224-224v0zM512 256v0c-106.039 0-192 85.961-192 192s85.961 192 192 192c106.039 0 192-85.961 192-192s-85.961-192-192-192zM512 352c53.019 0 96 42.981 96 96s-42.981 96-96 96c-53.019 0-96-42.981-96-96s42.981-96 96-96v0zM512 384c35.346 0 64 28.654 64 64s-28.654 64-64 64c-35.346 0-64-28.654-64-64s28.654-64 64-64v0z" />
<glyph unicode="&#xe954;" glyph-name="sailing-boat" d="M229.439 224c13.127-37.286 48.584-64 90.565-64h415.992c41.785 0 77.335 26.761 90.526 64h-597.084zM544 256h320c0-70.549-57.299-128-127.98-128h-416.040c-70.685 0-127.98 57.308-127.98 128h320v480h32v-480zM864 288l-288 288v-288h288zM784 320h-176v176l176-176zM288 560v0c96 160 192 176 192 176s-32-112-32-256c0-144 32-192 32-192h-288c0 0 0 112 96 272zM300.697 518.111c-73.497-139.504-73.497-198.111-73.497-198.111h208c0 0-19.2 57.879-19.2 160s19.2 199.305 19.2 199.305c0 0-71.691-41.972-134.503-161.193v0z" />
<glyph unicode="&#xe955;" glyph-name="sailing-boat2" d="M544 256h320c0-70.549-57.299-128-127.98-128h-416.040c-70.685 0-127.98 57.308-127.98 128h320v480h32v-480zM864 288h-288v288l288-288zM288 560c-96-160-96-272-96-272h288c0 0-32 48-32 192s32 256 32 256c0 0-96-16-192-176v0z" />
<glyph unicode="&#xe956;" glyph-name="sailing-boat-water" d="M693.476 224h10.544c70.681 0 127.98 57.451 127.98 128h-320v480h-32v-480h-320c0-28.033 9.010-53.962 24.292-75.047 9.965 4.822 19.991 9.281 30.072 13.361-7.298 8.713-13.073 18.744-16.925 29.685v0h139.971c18.152 1.374 36.404 1.403 54.724 0h402.389c-13.191-37.239-48.741-64-90.526-64h-125.152c39.071-18.425 77.335-28.769 114.632-32v0 0zM832 384l-288 288v-288h288zM752 416h-176v176l176-176zM256 656v0c96 160 192 176 192 176s-32-112-32-256c0-144 32-192 32-192h-288c0 0 0 112 96 272zM268.697 614.111c-73.497-139.504-73.497-198.111-73.497-198.111h208c0 0-19.2 57.879-19.2 160s19.2 199.305 19.2 199.305c0 0-71.691-41.972-134.503-161.193v0zM96 191.991c13.836 10.221 28.847 20.282 44.944 29.888 129.022 76.997 270.126 94.877 410.234 16.066 128.678-72.381 249.158-56.356 355.848 14.473 19.937 13.236 37.673 27.41 52.974 41.57v-42.314c-10.914-8.854-22.684-17.557-35.275-25.916-115.906-76.948-248.908-94.638-389.235-15.704-128.701 72.394-258.077 56.001-378.147-15.654-22.804-13.609-43.3-28.192-61.139-42.753-0.068-0.055-0.136-0.111-0.203-0.166v40.509zM191.334 152.591c114.937 53.286 237.769 58.021 359.844-10.646 111.406-62.666 216.668-59.066 312.156-11.004v-35.491c-100.57-45.867-211.698-46.727-327.844 18.605-116.641 65.61-233.836 58.293-344.156 3.007v35.53z" />
<glyph unicode="&#xe957;" glyph-name="sailing-boat-water2" d="M693.476 224h10.544c70.681 0 127.98 57.451 127.98 128h-320v480h-32v-480h-320c0-28.033 9.010-53.962 24.292-75.047 117.145 56.689 242.744 63.211 367.553-6.994 48.473-27.266 95.784-41.987 141.632-45.959v0 0zM832 384h-288v288l288-288zM256 656c-96-160-96-272-96-272h288c0 0-32 48-32 192s32 256 32 256c0 0-96-16-192-176v0zM96 159.991c13.836 10.221 28.847 20.282 44.944 29.888 129.022 76.997 270.126 94.877 410.234 16.066 128.678-72.381 249.158-56.356 355.848 14.473 19.937 13.236 37.673 27.41 52.974 41.57v-42.314c-10.914-8.854-22.684-17.557-35.275-25.916-115.906-76.948-248.908-94.638-389.235-15.704-128.701 72.394-258.077 56.001-378.147-15.654-22.804-13.609-43.3-28.192-61.139-42.753-0.068-0.055-0.136-0.111-0.203-0.166v40.509zM191.334 120.591c114.937 53.286 237.769 58.021 359.844-10.646 111.406-62.666 216.668-59.066 312.156-11.004v-35.491c-100.57-45.867-211.698-46.727-327.844 18.605-116.641 65.61-233.836 58.293-344.156 3.007v35.53z" />
<glyph unicode="&#xe958;" glyph-name="bowling-pins" d="M672.798 512h62.008l1.194 64h-64l0.798-64zM658.419 480c-19.132-33.46-50.419-101.841-50.419-191.234 0-112.766 51.2-192.766 51.2-192.766h89.6c0 0 51.2 79.959 51.2 192.766 0 89.352-31.515 157.762-50.78 191.234h-90.802zM670.057 608h67.912c6.965 53.144 30.032 71.247 30.032 112 0 35.346-30.441 48.648-64 48.648s-64-13.056-64-48.648c0-40.801 23.121-58.481 30.057-112zM288.798 512h62.008l1.194 64h-64l0.798-64zM274.419 480c-19.132-33.46-50.419-101.841-50.419-191.234 0-112.766 51.2-192.766 51.2-192.766h89.6c0 0 51.2 79.959 51.2 192.766 0 89.352-31.515 157.762-50.78 191.234h-90.802zM286.057 608h67.912c6.965 53.144 30.032 71.247 30.032 112 0 35.346-30.441 48.648-64 48.648s-64-13.056-64-48.648c0-40.801 23.121-58.481 30.057-112zM448 288.766c0-128.686-64-224.766-64-224.766h-128c0 0-64 96-64 224.766s64 223.234 64 223.234v64c0 64-32 96-32 144 0 35.593 32 80 96 80s96-44.654 96-80c0-48-32-80-32-144v-64c0.009-0.013 64-94.558 64-223.234v0zM832 288.766c0-128.686-64-224.766-64-224.766h-128c0 0-64 96-64 224.766s64 223.234 64 223.234v64c0 64-32 96-32 144 0 35.593 32 80 96 80s96-44.654 96-80c0-48-32-80-32-144v-64c0.009-0.013 64-94.558 64-223.234v0z" />
<glyph unicode="&#xe959;" glyph-name="bowling-pins2" d="M640 512v64h128v-64h-128zM622.036 480c-18.931-38.163-46.036-107.436-46.036-191.234 0-128.766 64-224.766 64-224.766h128c0 0 64 96.080 64 224.766 0 83.76-27.114 153.058-46.046 191.234h-163.918zM637.215 608c-7.786 44.155-29.215 72.72-29.215 112 0 35.593 32 80 96 80s96-44.654 96-80c0-39.28-21.429-67.845-29.215-112h-133.569zM256 512v64h128v-64h-128zM238.036 480c-18.931-38.163-46.036-107.436-46.036-191.234 0-128.766 64-224.766 64-224.766h128c0 0 64 96.080 64 224.766 0 83.76-27.114 153.058-46.046 191.234h-163.918zM253.215 608c-7.786 44.155-29.215 72.72-29.215 112 0 35.593 32 80 96 80s96-44.654 96-80c0-39.28-21.429-67.845-29.215-112h-133.569z" />
<glyph unicode="&#xe95a;" glyph-name="bowling-pin-ball" d="M449.24 137.042v0 0c-20.915 28.95-33.24 64.514-33.24 102.958 0 50.629 21.378 96.266 55.6 128.374-10.693 50.318-29.342 88.973-42.38 111.626h-90.802c-19.132-33.46-50.419-101.841-50.419-191.234 0-112.766 51.2-192.766 51.2-192.766h89.6c0 0 9.573 14.95 20.441 41.042zM472.623 110.673c-13.197-29.519-24.623-46.673-24.623-46.673h-128c0 0-64 96-64 224.766s64 223.234 64 223.234v64c0 64-32 96-32 144 0 35.593 32 80 96 80s96-44.654 96-80c0-48-32-80-32-144v-64c0.006-0.009 32.567-48.117 51.237-122.402 26.934 16.737 58.72 26.402 92.763 26.402 97.202 0 176-78.798 176-176s-78.798-176-176-176c-46.070 0-88.006 17.701-119.377 46.673v0 0zM352.798 512h62.008l1.194 64h-64l0.798-64zM350.057 608h67.912c6.965 53.144 30.032 71.247 30.032 112 0 35.346-30.441 48.648-64 48.648s-64-13.056-64-48.648c0-40.801 23.121-58.481 30.057-112zM592 96c79.529 0 144 64.471 144 144s-64.471 144-144 144c-79.529 0-144-64.471-144-144s64.471-144 144-144v0zM592 320c8.837 0 16 7.163 16 16s-7.163 16-16 16c-8.837 0-16-7.163-16-16s7.163-16 16-16v0zM560 256c8.837 0 16 7.163 16 16s-7.163 16-16 16c-8.837 0-16-7.163-16-16s7.163-16 16-16v0zM624 256c8.837 0 16 7.163 16 16s-7.163 16-16 16c-8.837 0-16-7.163-16-16s7.163-16 16-16v0z" />
<glyph unicode="&#xe95b;" glyph-name="bowling-pin-ball2" d="M457.957 80.945c-5.976-10.968-9.957-16.945-9.957-16.945h-128c0 0-64 96-64 224.766 0 83.798 27.105 153.071 46.036 191.234v0h163.918c7.467-15.058 16.208-34.959 24.055-58.679-63.278-35.669-106.010-103.505-106.010-181.321 0-63.805 28.729-120.9 73.957-159.055v0 0zM320 512v64h128v-64h-128zM317.215 608c-7.786 44.155-29.215 72.72-29.215 112 0 35.593 32 80 96 80s96-44.654 96-80c0-39.28-21.429-67.845-29.215-112h-133.569zM592 64v0c-97.202 0-176 78.798-176 176s78.798 176 176 176c97.202 0 176-78.798 176-176s-78.798-176-176-176zM592 320c8.837 0 16 7.163 16 16s-7.163 16-16 16c-8.837 0-16-7.163-16-16s7.163-16 16-16v0zM560 256c8.837 0 16 7.163 16 16s-7.163 16-16 16c-8.837 0-16-7.163-16-16s7.163-16 16-16v0zM624 256c8.837 0 16 7.163 16 16s-7.163 16-16 16c-8.837 0-16-7.163-16-16s7.163-16 16-16v0z" />
<glyph unicode="&#xe95c;" glyph-name="diving-goggles" d="M512 288v0c0-63.193 0 0 0 0 0-88.134 71.634-160 160-160 88.186 0 160 71.522 160 159.748v544.252h96v-544.125c0-141.255-114.615-255.875-256-255.875-141.097 0-256 114.615-256 256 0 0 0-123.712 0 0h-64v96h224v-96h-64zM864 287.794c0-105.925-86.177-191.794-192-191.794-106.039 0-192 85.964-192 191.906v32.094h64v32h-160v-32h64v-31.905c0-123.764 100.184-224.095 224-224.095 0 0-92.123 0 0 0 123.712 0 224 100.332 224 223.933v352.067h-32v-352.206zM864 672h32v128h-32v-128zM128 592v-15.965c0-88.385 71.491-160.035 159.811-160.035h32.096c17.725 0 40.149 11.507 50.588 26.421l56.832 81.189c20.254 28.934 53.138 28.781 73.21 0l56.622-81.189c10.176-14.592 32.464-26.421 50.579-26.421h32.155c88.424 0 160.106 71.657 160.106 160.035v15.965c0 97.202-79.063 176-175.682 176h-320.635c-97.027 0-175.682-78.996-175.682-176v0zM624.318 736c79.085 0 143.682-64.61 143.682-144v-15.965c0-70.705-57.354-128.035-128.106-128.035h-32.155c-7.5 0-20.052 6.589-24.332 12.726l-56.622 81.189c-32.825 47.067-92.698 47.153-125.673 0.046l-56.832-81.189c-4.367-6.239-16.943-12.772-24.373-12.772h-32.096c-70.614 0-127.811 57.291-127.811 128.035v15.965c0 79.418 64.415 144 143.682 144h320.635z" />
<glyph unicode="&#xe95d;" glyph-name="diving-goggles2" d="M512 288h64v96h-224v-96h64c0-123.712 0 0 0 0 0-141.385 114.903-256 256-256 141.385 0 256 114.62 256 255.875v544.125h-96v-544.252c0-88.227-71.814-159.748-160-159.748-88.366 0-160 71.866-160 160 0 0 0-63.193 0 0v0zM864 672v128h32v-128h-32zM128 592v-15.965c0-88.385 71.491-160.035 159.811-160.035h32.096c17.725 0 40.149 11.507 50.588 26.421l56.832 81.189c20.254 28.934 53.138 28.781 73.21 0l56.622-81.189c10.176-14.592 32.464-26.421 50.579-26.421h32.155c88.424 0 160.106 71.657 160.106 160.035v15.965c0 97.202-79.063 176-175.682 176h-320.635c-97.027 0-175.682-78.996-175.682-176v0zM624.318 736c79.085 0 143.682-64.61 143.682-144v-15.965c0-70.705-57.354-128.035-128.106-128.035h-32.155c-7.5 0-20.052 6.589-24.332 12.726l-56.622 81.189c-32.825 47.067-92.698 47.153-125.673 0.046l-56.832-81.189c-4.367-6.239-16.943-12.772-24.373-12.772h-32.096c-70.614 0-127.811 57.291-127.811 128.035v15.965c0 79.418 64.415 144 143.682 144h320.635zM624.318 704c61.411 0 111.682-50.065 111.682-111.518v-15.896c0-52.8-43.024-95.622-96.106-95.622h-32.155c2.991 0 0.228 1.444 1.915-0.965l-56.622 80.84c-45.541 65.018-132.402 65.143-178.136 0.091l-56.832-80.84c1.627 2.315-1.158 0.874 1.843 0.874h-32.096c-52.929 0-95.811 42.767-95.811 95.622v15.896c0 61.497 50.107 111.518 111.682 111.518h320.635z" />
<glyph unicode="&#xe95e;" glyph-name="sports-shoe" d="M396.8 555.349l16.016-24.617c-4.523-3.516-8.974-6.975-13.355-10.334l-17.437 26.802-26.823-17.451 18.357-28.216c-4.85-3.258-9.612-6.248-14.291-8.897l-18.843 28.963-26.823-17.451 15.212-23.383c-2.971-0.503-5.908-0.767-8.812-0.767-64 0-95.826 0-95.826 0-53.116 0-96.174-43.189-96.174-96.296 0-70.529 57.534-127.704 128.090-127.704h607.795c35.41 0 64.45 28.806 64.273 63.745 0 0 8.775 288.255-64.158 288.255s-64-63.086-160-63.086c-96 0-80 63.086-128 63.086-36.124 0-68.918-13.315-98.921-31.357l-15.668 24.082-26.823-17.451 15.769-24.238c-4.075-2.894-8.096-5.831-12.065-8.785l-14.67 22.549-26.823-17.451zM891.576 460.812c2.437-25.366 3.853-51.553 4.503-76.812h-192.079c-61.359 0-80 0-144.624-8.436-0.77 4.772-2.325 10.111-5.065 15.592-7.621 15.241-22.026 24.845-42.311 24.845h-176c-21.715 0-34.31 8.397-41.689 23.155-1.479 2.959-2.654 5.953-3.568 8.845 7.913 0 17.458 0 29.257 0 9.16 0 18.155 1.471 27.306 4.341l14.091-21.658 26.823 17.451-11.471 17.631c3.941 2.288 7.962 4.789 12.082 7.498 0.724 0.476 1.45 0.958 2.179 1.445l11.987-18.425 26.823 17.451-12.858 19.764c0.692 0.528 1.393 1.064 2.103 1.609 1.519 1.165 6.059 4.684 11.26 8.714l14.272-21.937 26.823 17.451-15.636 24.033c4.12 3.074 8.137 6.004 12.060 8.793l14.541-22.351 26.823 17.451-14.653 22.522c3.389 2.036 6.716 3.947 9.989 5.735l0.754-1.547c0 0 19.508-29.404 35.387-45.283 37.843-37.843 86.793-60.686 147.314-60.686 58.918 0 112.527 15.767 159.77 42.013 12.305 6.836 32.448 20.676 36.134 23.572 3.411-15.597 5.803-33.318 7.672-52.774zM896.51 353.144c0.020-8.656-0.044-17.101-0.181-25.253-0.059-3.524-0.118-5.959-0.155-7.173 0.072-18.244-14.522-32.718-32.288-32.718h-607.795c-28.439 0-54.035 12.374-71.646 32h231.556c45.098 0 76.524 10.443 137.704 21.007 70.296 12.138 113.997 12.138 150.296 12.138h192.51zM165.421 352c-3.51 9.927-5.421 20.598-5.421 31.704 0 35.473 28.771 64.296 64.174 64.296 1.127 0 1.127 0 6.768 0 11.552 0 18.21 0 26.745 0 2.932-10.96 6.541-20.233 8.003-23.155 12.621-25.241 36.026-40.845 70.311-40.845h176c7.715 0 11.31-2.397 13.689-7.155 1.69-3.379 2.311-7.107 2.311-8.845-42.272-11.078-74.434-16-112-16h-250.579zM576 576c4.101 0 5.034-0.573 11.019-7.64-0.421 0.497 8.038-9.754 11.050-13.146 24.883-28.032 55.641-42.3 105.931-42.3 48.712 0 77.005 12.124 109.163 38.983 1.455 1.216 3.636 3.056 6.952 5.85 17.096 14.331 25.458 18.254 43.885 18.254-0.582 0 4.369-5.791 10.582-23.586 3.539-10.139 2.637-6.965 2.637-6.965s-9.599-4.462-10.194-4.912c-10.182-7.687-21.811-15.338-34.795-22.551-42.757-23.754-91.148-37.987-144.23-37.987-51.479 0-92.529 19.157-124.686 51.314-10.215 10.215-25.95 32.045-25.95 32.045l-3.878 5.236c14.41 5.013 28.252 7.405 42.515 7.405z" />
<glyph unicode="&#xe95f;" glyph-name="sports-shoe2" d="M450.358 559.036c-4.075-2.894-8.096-5.831-12.065-8.785v0l33.127-50.918-26.823-17.451-31.781 48.85c-4.523-3.516-8.974-6.975-13.355-10.334l30.36-46.664-26.823-17.451-29.44 45.251c-4.85-3.258-9.612-6.248-14.291-8.897v0l28.954-44.504-26.823-17.451-32.584 50.084c-2.971-0.503-5.908-0.767-8.812-0.767-11.751 0-22.416 0-32 0v0-16c0-5.738 1.621-15.465 6.311-24.845 7.379-14.759 19.974-23.155 41.689-23.155h176c20.285 0 34.69-9.603 42.311-24.845 2.937-5.874 4.513-11.587 5.219-16.612 62.789 10.367 144.47 8.312 144.47 8.312h224.064c-1.102 45.188-4.769 106.114-15.646 153.192l-5.104-3.361c-2.926-2.926-8.264-7.716-15.899-13.744-12.525-9.888-27.109-19.742-43.644-28.928-47.243-26.246-100.852-42.013-159.77-42.013-92.838 0-153.354 50.438-186.851 113.82-1.371 2.594-4.005 9.766-8.773 23.442v0c-5.179-2.714-10.277-5.6-15.297-8.619l32.129-49.385-26.823-17.451-32.028 49.229zM256 480c-21.239 0-31.826 0-31.826 0-53.116 0-96.174-43.189-96.174-96.296 0-10.944 1.385-21.567 3.99-31.704v0h284.010c36.416 0 72.658 7.852 111.996 16.241-0.053 1.825-0.692 5.373-2.307 8.603-2.379 4.759-5.974 7.155-13.689 7.155h-176c-34.285 0-57.69 15.603-70.311 40.845-7.31 14.621-9.689 28.893-9.689 39.155v16zM145.091 320c22.168-38.252 63.651-64 110.999-64h607.795c35.41 0 64.45 28.806 64.273 63.745 0 0 0.38 12.484 0.325 32.255h-224.483c0 0-96 0-150.296-10.993-47.971-9.713-92.606-21.007-137.704-21.007h-270.909zM521.749 598.222c17.217 6.104 35.275 9.778 54.251 9.778 48 0 32-63.086 128-63.086s87.066 63.086 160 63.086c17.1 0 29.709-15.847 38.992-40.109l-15.867-10.578c-4.512-4.073-8.925-8.033-15.539-13.255-11.225-8.862-24.391-17.758-39.356-26.072-42.757-23.754-91.148-37.987-144.23-37.987-78.695 0-130.026 42.782-158.559 96.772-0.287 0.542-3.615 9.742-7.692 21.45v0z" />
<glyph unicode="&#xe960;" glyph-name="soccer-shoe" d="M412.816 530.732c-4.523-3.516-8.974-6.975-13.355-10.334l-17.437 26.802-26.823-17.451 18.357-28.216c-4.85-3.258-9.612-6.248-14.291-8.897l-18.843 28.963-26.823-17.451 15.212-23.383c-2.971-0.503-5.908-0.767-8.812-0.767-64 0-95.826 0-95.826 0-53.116 0-96.174-43.189-96.174-96.296 0-70.529 57.534-127.704 128.090-127.704h63.91v-32h32v32h64.088v-32h31.912v32h64v-32h32v32h64v-32h32v32h64.004l-0.004-32h32v32h64v-32h32v32h31.885c35.41 0 64.45 28.806 64.273 63.745 0 0 8.775 288.255-64.158 288.255s-64-63.086-160-63.086c-96 0-80 63.086-128 63.086-36.124 0-68.918-13.315-98.921-31.357l-15.668 24.082-26.823-17.451 15.769-24.238c-4.075-2.894-8.096-5.831-12.065-8.785l-14.67 22.549-26.823-17.451 16.016-24.617zM891.576 460.812c2.437-25.366 3.853-51.553 4.503-76.812h-192.079c-61.359 0-80 0-144.624-8.436-0.77 4.772-2.325 10.111-5.065 15.592-7.621 15.241-22.026 24.845-42.311 24.845h-176c-21.715 0-34.31 8.397-41.689 23.155-1.479 2.959-2.654 5.953-3.568 8.845 7.913 0 17.458 0 29.257 0 9.16 0 18.155 1.471 27.306 4.341l14.091-21.658 26.823 17.451-11.471 17.631c3.941 2.288 7.962 4.789 12.082 7.498 0.724 0.476 1.45 0.958 2.179 1.445l11.987-18.425 26.823 17.451-12.858 19.764c0.692 0.528 1.393 1.064 2.103 1.609 1.519 1.165 6.059 4.684 11.26 8.714l14.272-21.937 26.823 17.451-15.636 24.033c4.12 3.074 8.137 6.004 12.060 8.793l14.541-22.351 26.823 17.451-14.653 22.522c3.389 2.036 6.716 3.947 9.989 5.735l0.754-1.547c0 0 19.508-29.404 35.387-45.283 37.843-37.843 86.793-60.686 147.314-60.686 58.918 0 112.527 15.767 159.77 42.013 12.305 6.836 32.448 20.676 36.134 23.572 3.411-15.597 5.803-33.318 7.672-52.774zM896.51 353.144c0.020-8.656-0.044-17.101-0.181-25.253-0.059-3.524-0.118-5.959-0.155-7.173 0.072-18.244-14.522-32.718-32.288-32.718h-607.795c-28.439 0-54.035 12.374-71.646 32h231.556c45.098 0 76.524 10.443 137.704 21.007 70.296 12.138 113.997 12.138 150.296 12.138h192.51zM165.421 352c-3.51 9.927-5.421 20.598-5.421 31.704 0 35.473 28.771 64.296 64.174 64.296 1.127 0 1.127 0 6.768 0 11.552 0 18.21 0 26.745 0 2.932-10.96 6.541-20.233 8.003-23.155 12.621-25.241 36.026-40.845 70.311-40.845h176c7.715 0 11.31-2.397 13.689-7.155 1.69-3.379 2.311-7.107 2.311-8.845-42.272-11.078-74.434-16-112-16h-250.579zM576 576c4.101 0 5.034-0.573 11.019-7.64-0.421 0.497 8.038-9.754 11.050-13.146 24.883-28.032 55.641-42.3 105.931-42.3 48.712 0 77.005 12.124 109.163 38.983 1.455 1.216 3.636 3.056 6.952 5.85 17.096 14.331 25.458 18.254 43.885 18.254-0.582 0 4.369-5.791 10.582-23.586 3.539-10.139 2.637-6.965 2.637-6.965s-9.599-4.462-10.194-4.912c-10.182-7.687-21.811-15.338-34.795-22.551-42.757-23.754-91.148-37.987-144.23-37.987-51.479 0-92.529 19.157-124.686 51.314-10.215 10.215-25.95 32.045-25.95 32.045l-3.878 5.236c14.41 5.013 28.252 7.405 42.515 7.405v0z" />
<glyph unicode="&#xe961;" glyph-name="soccer-shoe2" d="M450.358 559.036c-4.075-2.894-8.096-5.831-12.065-8.785v0l33.127-50.918-26.823-17.451-31.781 48.85c-4.523-3.516-8.974-6.975-13.355-10.334l30.36-46.664-26.823-17.451-29.44 45.251c-4.85-3.258-9.612-6.248-14.291-8.897v0l28.954-44.504-26.823-17.451-32.584 50.084c-2.971-0.503-5.908-0.767-8.812-0.767-11.751 0-22.416 0-32 0v0-16c0-5.738 1.621-15.465 6.311-24.845 7.379-14.759 19.974-23.155 41.689-23.155h176c20.285 0 34.69-9.603 42.311-24.845 2.937-5.874 4.513-11.587 5.219-16.612 62.789 10.367 144.47 8.312 144.47 8.312h224.064c-1.102 45.188-4.769 106.114-15.646 153.192l-5.104-3.361c-2.926-2.926-8.264-7.716-15.899-13.744-12.525-9.888-27.109-19.742-43.644-28.928-47.243-26.246-100.852-42.013-159.77-42.013-92.838 0-153.354 50.438-186.851 113.82-1.371 2.594-4.005 9.766-8.773 23.442v0c-5.179-2.714-10.277-5.6-15.297-8.619l32.129-49.385-26.823-17.451-32.028 49.229zM256 480c-21.239 0-31.826 0-31.826 0-53.116 0-96.174-43.189-96.174-96.296 0-10.944 1.385-21.567 3.99-31.704v0h284.010c36.416 0 72.658 7.852 111.996 16.241-0.053 1.825-0.692 5.373-2.307 8.603-2.379 4.759-5.974 7.155-13.689 7.155h-176c-34.285 0-57.69 15.603-70.311 40.845-7.31 14.621-9.689 28.893-9.689 39.155v16zM145.091 320c22.168-38.252 63.651-64 110.999-64h63.91v-32h32v32h64v-32h32v32h64v-32h32v32h64v-32h32v32h64v-32h32v32h64v-32h32v32h31.885c35.41 0 64.45 28.806 64.273 63.745 0 0 0.38 12.484 0.325 32.255h-224.483c0 0-96 0-150.296-10.993-47.971-9.713-92.606-21.007-137.704-21.007h-270.909zM521.749 598.222c17.217 6.104 35.275 9.778 54.251 9.778 48 0 32-63.086 128-63.086s87.066 63.086 160 63.086c17.1 0 29.709-15.847 38.992-40.109l-15.867-10.578c-4.512-4.073-8.925-8.033-15.539-13.255-11.225-8.862-24.391-17.758-39.356-26.072-42.757-23.754-91.148-37.987-144.23-37.987-78.695 0-130.026 42.782-158.559 96.772-0.287 0.542-3.615 9.742-7.692 21.45v0z" />
</font>
</defs>
</svg>
