<?xml version="1.0" standalone="no"?>
<!DOCTYPE svg PUBLIC "-//W3C//DTD SVG 1.1//EN" "http://www.w3.org/Graphics/SVG/1.1/DTD/svg11.dtd" >
<svg xmlns="http://www.w3.org/2000/svg">
<metadata></metadata>
<defs>
<font id="source_sans_probold_italic" horiz-adv-x="1042" >
<font-face units-per-em="2048" ascent="1536" descent="-512" />
<missing-glyph horiz-adv-x="405" />
<glyph horiz-adv-x="0" />
<glyph horiz-adv-x="682" />
<glyph horiz-adv-x="0" />
<glyph horiz-adv-x="0" />
<glyph unicode="&#xd;" horiz-adv-x="405" />
<glyph unicode=" "  horiz-adv-x="405" />
<glyph unicode="&#x09;" horiz-adv-x="405" />
<glyph unicode="&#xa0;" horiz-adv-x="405" />
<glyph unicode="!" horiz-adv-x="677" d="M92 127q0 37 14.5 75t41 66.5t63.5 47t82 18.5q66 0 105.5 -44t39.5 -110q0 -39 -14 -75.5t-41 -65.5t-63.5 -46.5t-81.5 -17.5q-66 0 -106 42t-40 110zM236 463l94 651l39 258h280l-59 -258l-170 -651h-184z" />
<glyph unicode="&#x22;" horiz-adv-x="1044" d="M248 743l43 371l37 258h276l-57 -258l-117 -371h-182zM697 743l43 371l37 258h276l-57 -258l-117 -371h-182z" />
<glyph unicode="#" horiz-adv-x="1036" d="M37 385l43 182h168l74 238h-156l45 182h168l110 344h166l-110 -344h205l110 344h164l-109 -344h154l-43 -182h-168l-74 -238h156l-43 -182h-170l-123 -385h-166l123 385h-205l-123 -385h-163l123 385h-156zM414 567h204l74 238h-205z" />
<glyph unicode="$" d="M12 180l172 170q47 -59 112.5 -104t143.5 -45q86 0 132 42t46 113q0 55 -30.5 99.5t-76.5 84.5t-99.5 78.5t-99.5 86t-76.5 104.5t-30.5 135q0 80 27.5 148.5t77.5 121t121 85t157 40.5l39 203h186l-43 -219q72 -20 133.5 -63t114.5 -107l-176 -158q-41 53 -94.5 87 t-112.5 34q-72 0 -113 -40t-41 -99q0 -49 31 -89t77 -77t99 -76t99.5 -88t77 -110.5t30.5 -145.5t-27.5 -154.5t-78 -124t-123 -88t-162.5 -44.5l-43 -205h-185l43 215q-88 20 -167.5 69.5t-139.5 120.5z" />
<glyph unicode="%" horiz-adv-x="1697" d="M109 854q0 106 28.5 202.5t79.5 168t124 113.5t163 42q59 0 110.5 -23.5t90 -66.5t60 -103.5t21.5 -133.5q0 -109 -28.5 -204t-79.5 -166t-125 -113t-162 -42q-59 0 -110.5 24t-90 65.5t-60 102t-21.5 134.5zM289 -25l970 1401h164l-970 -1401h-164zM309 860 q0 -76 23.5 -120t77.5 -44q39 0 70.5 27t55 74t37 111.5t13.5 140.5t-24 119.5t-77 43.5q-39 0 -70.5 -26.5t-55 -74.5t-37 -112.5t-13.5 -138.5zM949 301q0 106 28.5 202.5t79.5 168t124 113.5t163 42q59 0 110.5 -23.5t90 -66.5t60 -103.5t21.5 -133.5q0 -109 -28.5 -204 t-79.5 -166t-125 -113t-162 -42q-59 0 -110.5 24t-90 65.5t-60 102t-21.5 134.5zM1149 307q0 -76 23.5 -120t77.5 -44q39 0 70.5 27t55 74t37 111.5t13.5 140.5t-24 119.5t-77 43.5q-39 0 -70.5 -26.5t-55 -74.5t-37 -112.5t-13.5 -138.5z" />
<glyph unicode="&#x26;" horiz-adv-x="1296" d="M29 307q0 82 25.5 146.5t68.5 116t98 92t117 75.5q-18 57 -28.5 113.5t-10.5 110.5q0 82 31.5 154.5t87 126.5t129.5 86t158 32q135 0 204.5 -73t69.5 -195q0 -76 -30.5 -137.5t-80 -111.5t-112 -93t-127.5 -82q41 -72 96 -138.5t117 -123.5q68 78 119 162.5t92 183.5 h254q-59 -127 -132 -246t-169 -225q53 -33 104 -53.5t92 -30.5l-110 -222q-70 16 -140.5 48t-138.5 79q-88 -61 -188.5 -94t-214.5 -33q-180 0 -280.5 92.5t-100.5 239.5zM301 338q0 -66 42 -109t116 -43q96 0 192 54q-66 66 -122 141.5t-101 157.5q-57 -45 -92 -93.5 t-35 -107.5zM532 969q0 -55 17 -121q90 49 151.5 105.5t61.5 140.5q0 37 -18.5 58.5t-55.5 21.5q-61 0 -108.5 -54.5t-47.5 -150.5z" />
<glyph unicode="'" horiz-adv-x="595" d="M248 743l43 371l37 258h276l-57 -258l-117 -371h-182z" />
<glyph unicode="(" horiz-adv-x="673" d="M115 268q0 178 31.5 338t92 309.5t150.5 294t207 291.5l162 -82q-217 -289 -317.5 -580.5t-100.5 -590.5q0 -66 4 -137.5t13.5 -143t23.5 -138.5t33 -122l-178 -74q-25 63 -46.5 140t-38 159t-26.5 167t-10 169z" />
<glyph unicode=")" horiz-adv-x="677" d="M-68 -285q217 289 317.5 581t100.5 591q0 66 -4 137.5t-13 143t-23.5 139t-33.5 123.5l179 71q25 -66 46 -141.5t38.5 -156.5t28 -167t10.5 -168q0 -178 -32 -338.5t-93.5 -310t-151.5 -294t-207 -292.5z" />
<glyph unicode="*" horiz-adv-x="897" d="M207 1163l63 133l219 -69l66 235l145 -12l-16 -240l234 29l20 -143l-225 -78l78 -217l-134 -76l-125 193l-178 -168l-106 100l153 201z" />
<glyph unicode="+" d="M98 578v198h344v379h207v-379h344v-198h-348v-383h-205v383h-342z" />
<glyph unicode="," horiz-adv-x="595" d="M-55 -229q117 35 181 96t83 133q-68 2 -112 41t-44 104q0 74 51.5 131.5t139.5 57.5q82 0 126 -52.5t44 -146.5q0 -96 -31 -181t-87 -152.5t-138 -115.5t-185 -69z" />
<glyph unicode="-" horiz-adv-x="655" d="M68 420l43 198h479l-43 -198h-479z" />
<glyph unicode="." horiz-adv-x="595" d="M49 127q0 37 14.5 75t41 66.5t63.5 47t82 18.5q66 0 104.5 -44t38.5 -110q0 -39 -14 -75.5t-41 -65.5t-63.5 -46.5t-81.5 -17.5q-66 0 -105 42t-39 110z" />
<glyph unicode="/" horiz-adv-x="673" d="M-141 -328l762 1782h186l-766 -1782h-182z" />
<glyph unicode="0" d="M78 442q0 215 50 380t131 276.5t183.5 169t206.5 57.5q80 0 146.5 -29.5t114.5 -89t76 -147.5t28 -205q0 -215 -50.5 -380t-130 -275.5t-182.5 -167t-207 -56.5q-80 0 -146.5 30t-115.5 88.5t-76.5 146.5t-27.5 202zM338 414q0 -121 32.5 -172.5t92.5 -51.5 q55 0 108.5 54.5t94.5 148.5t66.5 220t25.5 270q0 121 -33 174t-92 53q-55 0 -108.5 -55.5t-94.5 -149.5t-66.5 -221t-25.5 -270z" />
<glyph unicode="1" d="M39 0l45 225h268l160 785h-238l35 176q109 16 184.5 43.5t147.5 70.5h209l-217 -1075h239l-45 -225h-788z" />
<glyph unicode="2" d="M-27 0l31 160q160 131 290 237.5t222 200.5t142.5 178t50.5 170q0 70 -40 114t-118 44q-55 0 -105.5 -28.5t-107.5 -76.5l-135 162q94 80 189 122t194 42q186 0 290.5 -96t104.5 -254q0 -98 -38 -185.5t-107.5 -174.5t-168 -179t-216.5 -200h440l-45 -236h-873z" />
<glyph unicode="3" d="M-33 209l178 145q51 -72 122 -112.5t141 -40.5q106 0 168.5 48t62.5 134q0 43 -14.5 77t-51 57.5t-99 35.5t-157.5 12l39 199q102 0 170 16.5t108 44t56.5 63.5t16.5 77q0 63 -41 101t-117 38q-47 0 -97.5 -21.5t-109.5 -62.5l-135 180q98 70 194.5 97.5t198.5 27.5 q88 0 161 -22.5t124 -63.5t79.5 -99.5t28.5 -127.5q0 -123 -62.5 -210t-215.5 -138v-9q104 -41 154.5 -112.5t50.5 -161.5q0 -98 -39 -174t-106.5 -127t-161 -78t-199.5 -27q-123 0 -242 56.5t-205 177.5z" />
<glyph unicode="4" d="M16 315l37 197l619 788h334l-154 -768h149l-40 -217h-150l-63 -315h-256l63 315h-539zM330 532h266l47 234q14 70 32.5 143.5t35.5 145.5h-9q-39 -59 -74.5 -121t-74.5 -117z" />
<glyph unicode="5" d="M-14 209l176 143q51 -70 113.5 -110.5t142.5 -40.5q47 0 90 16t74.5 48t51 78t19.5 103q0 92 -47 136.5t-131 44.5q-25 0 -45 -2t-41.5 -9.5t-46.5 -18.5t-57 -30l-105 86l160 647h700l-47 -235h-456l-72 -256q59 27 125 27q74 0 137.5 -21.5t109.5 -64.5t72.5 -107.5 t26.5 -150.5q0 -121 -44 -216.5t-118 -162t-168 -102.5t-194 -36q-123 0 -231.5 55.5t-194.5 178.5z" />
<glyph unicode="6" d="M102 438q0 199 49.5 363t136.5 280.5t206.5 180t261.5 63.5q61 0 110 -16.5t89 -43t70 -57t52 -61.5l-178 -150q-29 47 -67.5 75t-94.5 28q-117 0 -213 -103.5t-137 -308.5q55 59 129 91t127 32q70 0 129 -20.5t102.5 -62.5t68 -106.5t24.5 -150.5q0 -94 -34 -183 t-95.5 -159t-145.5 -112t-184 -42q-92 0 -168 34t-128 95.5t-81 146.5t-29 187zM362 412q0 -111 44 -169.5t116 -58.5q45 0 80 24.5t58.5 62.5t36 85t12.5 90q0 82 -36 127t-104 45q-41 0 -93 -26.5t-111 -99.5q-2 -20 -2.5 -40t-0.5 -40z" />
<glyph unicode="7" d="M203 1065l47 235h862l-35 -176q-147 -135 -244.5 -274t-163 -280.5t-105.5 -284t-70 -285.5h-289q45 170 97 318.5t118.5 280.5t147.5 248t186 218h-551z" />
<glyph unicode="8" d="M76 315q0 68 22.5 124.5t60.5 102.5t89 80.5t108 57.5v8q-55 57 -83.5 121.5t-28.5 142.5q0 86 33.5 156t92 118t134.5 73.5t162 25.5q66 0 129 -17.5t113 -55.5t81 -95t31 -137q0 -123 -63.5 -209t-170.5 -143v-9q70 -47 116 -121.5t46 -175.5q0 -90 -38 -160.5 t-102.5 -121.5t-150.5 -78t-180 -27q-70 0 -140.5 19.5t-128.5 60.5t-95 105.5t-37 154.5zM326 346q0 -74 45 -125t127 -51q37 0 72.5 12.5t62 36t43 59t16.5 82.5q0 78 -61.5 129.5t-159.5 106.5q-61 -43 -103 -104.5t-42 -145.5zM489 963q0 -74 43 -122t127 -93 q47 41 84 97t37 134q0 66 -32.5 106.5t-102.5 40.5q-63 0 -109.5 -43t-46.5 -120z" />
<glyph unicode="9" d="M23 156l176 147q29 -47 67.5 -74.5t93.5 -27.5q117 0 213.5 102.5t137.5 306.5q-57 -59 -130 -90t-126 -31q-70 0 -128.5 20.5t-101.5 62.5t-67.5 106.5t-24.5 150.5q0 94 34 183.5t94.5 159t144 111.5t184.5 42q94 0 169 -34t127 -95t80.5 -146t28.5 -188 q0 -201 -49 -363.5t-135 -279.5t-206 -180.5t-261 -63.5q-61 0 -111.5 16.5t-90.5 43t-69.5 58.5t-49.5 63zM389 854q0 -82 35.5 -127t105.5 -45q41 0 92.5 27.5t110.5 99.5q2 20 2 39.5v40.5q0 111 -44 169t-116 58q-45 0 -79.5 -24.5t-58 -62.5t-36 -85t-12.5 -90z" />
<glyph unicode=":" horiz-adv-x="595" d="M49 127q0 37 14.5 75t41 66.5t63.5 47t82 18.5q66 0 104.5 -44t38.5 -110q0 -39 -14 -75.5t-41 -65.5t-63.5 -46.5t-81.5 -17.5q-66 0 -105 42t-39 110zM166 811q0 37 14.5 75t41 66.5t63.5 47t82 18.5q66 0 104.5 -44t38.5 -110q0 -39 -14 -75.5t-41 -65.5t-63.5 -46.5 t-81.5 -17.5q-66 0 -105 42t-39 110z" />
<glyph unicode=";" horiz-adv-x="595" d="M-55 -229q117 35 181 96t83 133q-68 2 -112 41t-44 104q0 74 51.5 131.5t139.5 57.5q82 0 126 -52.5t44 -146.5q0 -96 -31 -181t-87 -152.5t-138 -115.5t-185 -69zM166 811q0 37 14.5 75t41 66.5t63.5 47t82 18.5q66 0 104.5 -44t38.5 -110q0 -39 -14 -75.5t-41 -65.5 t-63.5 -46.5t-81.5 -17.5q-66 0 -105 42t-39 110z" />
<glyph unicode="&#x3c;" d="M94 580v196l899 357v-230l-348 -125l-264 -94v-8l264 -96l348 -125v-234z" />
<glyph unicode="=" d="M98 342v198h895v-198h-895zM98 816v198h895v-198h-895z" />
<glyph unicode="&#x3e;" d="M98 221v234l351 125l262 96v8l-262 94l-351 125v230l899 -357v-196z" />
<glyph unicode="?" horiz-adv-x="909" d="M184 127q0 37 14.5 75t41 66.5t63.5 47t82 18.5q66 0 104.5 -44t38.5 -110q0 -39 -14 -75.5t-41 -65.5t-62.5 -46.5t-80.5 -17.5q-66 0 -106 42t-40 110zM231 1251q72 72 157 109t177 37q166 0 268.5 -81t102.5 -229q0 -80 -26.5 -138t-67.5 -105t-90.5 -88t-93.5 -84 t-77.5 -95.5t-43.5 -121.5l-238 20q8 82 38 142.5t71 107.5t85 85t81.5 74t62.5 73.5t25 86.5q0 59 -35 93t-97 34q-78 0 -157 -79z" />
<glyph unicode="@" horiz-adv-x="1773" d="M88 332q0 217 77 406.5t207 327.5t301 218t357 80q160 0 284 -49t210 -134t131 -201t45 -247q0 -164 -40 -285.5t-106.5 -203.5t-155.5 -123t-188 -41q-72 0 -128 39t-74 114h-9q-39 -59 -102 -96t-127 -37q-111 0 -183.5 80t-72.5 215q0 96 33 187.5t90 162t132 113.5 t161 43q92 0 143 -100h4l31 84h170l-104 -455q-41 -176 88 -176q41 0 87 28.5t83.5 85t62.5 141.5t25 196q0 96 -27 185t-88.5 157.5t-159.5 109.5t-241 41q-129 0 -258.5 -63.5t-232.5 -176t-167.5 -264t-64.5 -329.5q0 -137 45 -238.5t117.5 -169.5t165.5 -100.5 t192 -32.5q57 0 123.5 18.5t119.5 51.5l74 -152q-86 -45 -170 -67.5t-172 -22.5q-137 0 -262 43t-219 128t-150.5 212t-56.5 297zM723 412q0 -66 27.5 -102t76.5 -36q33 0 65 24t71 77l63 284q-33 63 -90 64q-45 0 -84 -29.5t-67.5 -76t-45 -101.5t-16.5 -104z" />
<glyph unicode="A" horiz-adv-x="1122" d="M-127 0l705 1335h335l134 -1335h-293l-17 336h-397l-158 -336h-309zM440 547h287l-8 176q-4 98 -8 194.5t-9 202.5h-8q-43 -104 -84 -200.5t-88 -196.5z" />
<glyph unicode="B" horiz-adv-x="1236" d="M57 0l269 1335h407q100 0 182 -18.5t141.5 -55t92.5 -94t33 -137.5q0 -117 -79 -206t-210 -128l-4 -8q111 -27 171 -89t60 -161q0 -117 -46 -200.5t-125 -136t-184.5 -77t-221.5 -24.5h-486zM381 215h174q143 0 219 54.5t76 158.5q0 82 -53.5 126t-163.5 44h-174z M498 788h133q141 0 202.5 53.5t61.5 141.5q0 66 -51 101.5t-162 35.5h-119z" />
<glyph unicode="C" horiz-adv-x="1161" d="M115 535q0 172 55 322.5t150.5 262t225.5 176t279 64.5q117 0 208 -56.5t149 -156.5l-193 -148q-37 59 -80 88t-98 29q-86 0 -159.5 -46t-129 -124t-87.5 -180t-32 -213q0 -156 66 -246t213 -90q59 0 116.5 28.5t110.5 73.5l117 -180q-31 -29 -72 -57.5t-92 -52 t-111.5 -39t-127.5 -15.5q-117 0 -210.5 38t-160 111t-102 176.5t-35.5 234.5z" />
<glyph unicode="D" horiz-adv-x="1261" d="M57 0l269 1335h292q281 0 435.5 -129t154.5 -395q0 -197 -54 -348.5t-151.5 -255t-232.5 -155.5t-295 -52h-418zM385 225h84q96 0 179 34t143.5 103.5t95.5 177t35 253.5q0 166 -84 241.5t-226 75.5h-53z" />
<glyph unicode="E" horiz-adv-x="1079" d="M57 0l269 1335h790l-45 -235h-514l-57 -291h436l-45 -236h-436l-70 -337h530l-45 -236h-813z" />
<glyph unicode="F" horiz-adv-x="1032" d="M57 0l269 1335h790l-45 -235h-514l-63 -328h434l-45 -235h-437l-106 -537h-283z" />
<glyph unicode="G" horiz-adv-x="1251" d="M115 535q0 172 55 322.5t152.5 262t231.5 176t292 64.5q129 0 222 -56.5t151 -156.5l-191 -148q-39 59 -85 88t-112 29q-92 0 -170.5 -46t-136 -124t-89.5 -180t-32 -213q0 -78 15.5 -139.5t50.5 -106.5t90 -68.5t133 -23.5q41 0 79 12.5t67 32.5l57 262h-219l43 230h465 l-123 -637q-78 -59 -184.5 -99.5t-233.5 -40.5q-123 0 -221 38t-167 110t-104.5 175.5t-35.5 236.5z" />
<glyph unicode="H" horiz-adv-x="1335" d="M57 0l269 1335h280l-106 -518h456l103 518h280l-266 -1335h-282l116 571h-456l-111 -571h-283z" />
<glyph unicode="I" horiz-adv-x="602" d="M57 0l269 1335h280l-266 -1335h-283z" />
<glyph unicode="J" horiz-adv-x="1005" d="M-16 178l172 170q29 -53 81 -92t123 -39q156 0 205 248l174 870h281l-184 -919q-18 -90 -54.5 -170t-94.5 -140.5t-139 -95.5t-188 -35q-117 0 -217 52.5t-159 150.5z" />
<glyph unicode="K" horiz-adv-x="1236" d="M57 0l269 1335h280l-108 -549h6l502 549h307l-486 -549l299 -786h-292l-213 610l-203 -219l-78 -391h-283z" />
<glyph unicode="L" horiz-adv-x="1024" d="M57 0l269 1335h280l-221 -1099h506l-45 -236h-789z" />
<glyph unicode="M" horiz-adv-x="1515" d="M57 0l269 1335h297l96 -616l35 -240h8l123 240l336 616h299l-269 -1335h-262l111 530q10 49 24.5 107.5t30.5 118t32.5 116t33.5 105.5h-7l-165 -307l-314 -547h-112l-99 547l-41 307h-8q-4 -49 -9 -106.5t-11 -117t-14.5 -116.5t-18.5 -107l-107 -530h-258z" />
<glyph unicode="N" horiz-adv-x="1316" d="M57 0l269 1335h272l217 -696l72 -293h8q6 51 10 112.5t10.5 124t14.5 126t20 120.5l103 506h266l-266 -1335h-271l-219 694l-67 297h-9q-10 -113 -23 -237.5t-36 -241.5l-102 -512h-269z" />
<glyph unicode="O" horiz-adv-x="1351" d="M117 541q0 176 55 326.5t148.5 260t216 171t258.5 61.5q115 0 207 -39t157.5 -111.5t101 -177t35.5 -237.5q0 -176 -55 -327t-148.5 -260.5t-216.5 -171t-258 -61.5q-115 0 -207 38t-157.5 111t-101 178.5t-35.5 238.5zM403 559q0 -160 59.5 -251t170.5 -91 q72 0 139.5 44t120.5 120t85 177t32 218q0 160 -58.5 250t-169.5 90q-72 0 -139.5 -44t-120.5 -118.5t-86 -176t-33 -218.5z" />
<glyph unicode="P" horiz-adv-x="1193" d="M57 0l269 1335h422q98 0 181 -19.5t144.5 -61.5t96 -109.5t34.5 -163.5q0 -139 -49 -237.5t-133 -161t-195.5 -91t-238.5 -28.5h-158l-90 -463h-283zM477 686h141q150 0 230 63.5t80 190.5q0 90 -58.5 131t-167.5 41h-143z" />
<glyph unicode="Q" horiz-adv-x="1351" d="M117 541q0 176 55 326.5t148.5 260t216 171t258.5 61.5q115 0 207 -39t157.5 -111.5t101 -177t35.5 -237.5q0 -160 -45 -297.5t-121.5 -244t-180 -176t-222.5 -91.5q41 -63 117 -92t162 -29q41 0 71.5 5t63.5 13l12 -211q-35 -14 -82 -23t-82 -9q-416 0 -559 366 q-147 53 -230 189.5t-83 345.5zM403 559q0 -160 59.5 -251t170.5 -91q72 0 139.5 44t120.5 120t85 177t32 218q0 160 -58.5 250t-169.5 90q-72 0 -139.5 -44t-120.5 -118.5t-86 -176t-33 -218.5z" />
<glyph unicode="R" horiz-adv-x="1220" d="M57 0l269 1335h417q98 0 182.5 -18.5t144.5 -59t95 -106.5t35 -158q0 -94 -25.5 -168.5t-70.5 -132t-107.5 -98.5t-136.5 -66l207 -528h-295l-172 489h-164l-96 -489h-283zM481 713h142q150 0 225.5 64.5t75.5 174.5q0 86 -57.5 123t-166.5 37h-141z" />
<glyph unicode="S" horiz-adv-x="1083" d="M10 225l201 158q53 -78 132 -123t165 -45t139 41t53 113q0 53 -42 86.5t-113 79.5l-127 77q-92 57 -145.5 134t-53.5 200q0 86 37 161t99.5 131t148.5 89t184 33q119 0 223.5 -55.5t182.5 -147.5l-179 -166q-51 53 -108 89t-131 36q-82 0 -126 -42t-44 -101q0 -51 45 -84 t123 -82l131 -80q98 -59 142 -130t44 -187q0 -92 -35.5 -171t-101.5 -137.5t-159 -92.5t-208 -34q-131 0 -254.5 57.5t-222.5 192.5z" />
<glyph unicode="T" horiz-adv-x="1089" d="M172 1098l45 237h983l-47 -237h-350l-217 -1098h-281l217 1098h-350z" />
<glyph unicode="U" horiz-adv-x="1316" d="M154 440q0 45 8 103.5t18 111.5l137 680h281l-145 -731q-8 -41 -12.5 -80t-4.5 -75q0 -113 45 -172.5t158 -59.5q96 0 159.5 79t100.5 265l156 774h274l-155 -770q-61 -307 -195.5 -448.5t-347.5 -141.5q-238 0 -357.5 114t-119.5 351z" />
<glyph unicode="V" horiz-adv-x="1134" d="M162 1335h293l34 -657q4 -106 8.5 -213t6.5 -215h8q47 109 93 215t93 213l297 657h310l-691 -1335h-340z" />
<glyph unicode="W" horiz-adv-x="1626" d="M158 0l47 1335h287l-43 -641q-10 -106 -19.5 -213.5t-21.5 -214.5h8q41 106 87 215t87 213l274 641h238l4 -641q-2 -104 -6 -211.5t-8 -216.5h8q37 109 75.5 216.5t73.5 211.5l226 641h268l-518 -1335h-355l9 639q0 66 5 149.5t13 161.5h-8q-29 -76 -60.5 -154.5 t-60.5 -156.5l-262 -639h-348z" />
<glyph unicode="X" horiz-adv-x="1132" d="M-74 0l496 688l-207 647h311l68 -268q10 -47 21.5 -98t25.5 -111h8q35 59 67 111.5t60 99.5l162 266h299l-469 -659l223 -676h-311l-76 291q-14 53 -26.5 104t-26.5 111h-8q-35 -59 -68 -111.5t-65 -105.5l-185 -289h-299z" />
<glyph unicode="Y" d="M164 1335h291l57 -321q14 -76 25.5 -145.5t25.5 -147.5h8q41 78 80 148.5t84 148.5l187 317h301l-566 -852l-96 -483h-278l94 483z" />
<glyph unicode="Z" horiz-adv-x="1075" d="M-10 0l37 168l729 932h-527l47 235h863l-35 -170l-723 -929h580l-50 -236h-921z" />
<glyph unicode="[" horiz-adv-x="675" d="M-6 -311l352 1761h410l-29 -150h-203l-291 -1462h201l-31 -149h-409z" />
<glyph unicode="\" horiz-adv-x="673" d="M174 1454h180l158 -1782h-182z" />
<glyph unicode="]" horiz-adv-x="677" d="M-59 -311l30 149h199l293 1462h-199l29 150h409l-352 -1761h-409z" />
<glyph unicode="^" horiz-adv-x="1036" d="M147 563l306 809h221l305 -809h-229l-93 277l-88 276h-8l-90 -276l-94 -277h-230z" />
<glyph unicode="_" horiz-adv-x="985" d="M-96 -283l30 158h936l-32 -158h-934z" />
<glyph unicode="`" horiz-adv-x="1093" d="M455 1479h260l115 -305h-193z" />
<glyph unicode="a" horiz-adv-x="1130" d="M63 348q0 145 45.5 271t121 220.5t174 147.5t202.5 53q70 0 131.5 -35.5t89.5 -97.5h4l46 109h223l-203 -1016h-227l4 133h-6q-70 -72 -154 -115t-164 -43q-135 0 -211 96.5t-76 276.5zM354 383q0 -92 32 -135t87 -43q51 0 109.5 31.5t107.5 117.5l72 361 q-25 51 -62.5 73.5t-72.5 22.5q-53 0 -102.5 -33t-87.5 -90t-60.5 -135t-22.5 -170z" />
<glyph unicode="b" horiz-adv-x="1132" d="M29 0l288 1436h281l-68 -326l-51 -190h4q68 55 143.5 87.5t151.5 32.5q135 0 211 -96t76 -276q0 -145 -45 -271.5t-121 -220.5t-173 -147.5t-202 -53.5q-70 0 -128 36t-87 98h-4l-45 -109h-231zM371 301q23 -51 58.5 -73.5t74.5 -22.5q53 0 102 32.5t87 90t60.5 135.5 t22.5 170t-33 135t-86 43q-47 0 -105 -27.5t-103 -99.5z" />
<glyph unicode="c" horiz-adv-x="907" d="M59 393q0 131 46.5 249t127 207t190 140t234.5 51q96 0 165 -38.5t108 -86.5l-156 -165q-31 33 -61.5 49t-73.5 16q-61 0 -114.5 -32.5t-93.5 -90t-62.5 -132.5t-22.5 -161q0 -92 43 -145t129 -53q53 0 91 20.5t71 44.5l117 -172q-57 -43 -138 -81t-202 -38 q-84 0 -157 28t-126 82t-84 132t-31 176z" />
<glyph unicode="d" horiz-adv-x="1118" d="M63 348q0 145 45.5 271t121 220.5t174 147.5t202.5 53q70 0 124 -33.5t83 -88.5h6l25 192l61 326h281l-289 -1436h-227l4 133h-6q-70 -72 -154 -115t-164 -43q-135 0 -211 96.5t-76 276.5zM354 383q0 -92 32 -135t87 -43q51 0 107.5 31.5t109.5 117.5l72 361 q-25 51 -62.5 73.5t-72.5 22.5q-53 0 -102.5 -33t-87.5 -90t-60.5 -135t-22.5 -170z" />
<glyph unicode="e" horiz-adv-x="1015" d="M59 410q0 141 50.5 256.5t131.5 198.5t181 129t203 46q90 0 153.5 -29.5t103.5 -81.5t57 -121t17 -149q0 -37 -6 -72.5t-14 -67.5t-17.5 -55.5t-15.5 -35.5h-577v-21q0 -111 60 -163q66 -58 167 -58q47 0 98 22.5t90 49.5l99 -176q-61 -43 -153.5 -75t-211.5 -32 q-92 0 -169 30t-131 86t-85 136.5t-31 182.5zM348 600h369q10 35 10 76q0 61 -29.5 105t-107.5 44q-72 0 -139.5 -56t-102.5 -169z" />
<glyph unicode="f" horiz-adv-x="669" d="M74 0l162 797h-132l43 207l134 12l12 67q14 78 45 146.5t79 120t114.5 81t154.5 29.5q59 0 114.5 -14t102.5 -41l-90 -199q-16 10 -43 20.5t-55 10.5q-55 0 -90 -29.5t-52 -113.5l-14 -78h176l-43 -219h-180l-158 -797h-280z" />
<glyph unicode="g" horiz-adv-x="1118" d="M-25 -293l121 187q59 -45 125 -76t137 -31q100 0 165 54.5t95 158.5l50 172h-4q-70 -66 -144 -102.5t-160 -36.5q-129 0 -213 87t-84 267q0 137 44.5 256t117 207t168.5 139t201 51q70 0 129 -35.5t88 -97.5h6l43 109h227l-198 -1000q-47 -227 -185.5 -339.5 t-353.5 -112.5q-92 0 -190.5 35.5t-184.5 107.5zM354 424q0 -84 31 -124t84 -40q51 0 108.5 28.5t106.5 104.5l64 322q-27 51 -63 73.5t-71 22.5q-53 0 -100 -29.5t-82 -82t-56.5 -123t-21.5 -152.5z" />
<glyph unicode="h" horiz-adv-x="1118" d="M29 0l288 1436h281l-78 -375l-45 -164h8q68 59 148 101t172 42q127 0 184 -66.5t57 -193.5q0 -35 -3 -70.5t-13 -74.5l-127 -635h-280l120 600q6 31 11.5 53.5t5.5 42.5q0 104 -105 105q-47 0 -97 -32t-116 -99l-131 -670h-280z" />
<glyph unicode="i" horiz-adv-x="542" d="M29 0l204 1016h279l-203 -1016h-280zM274 1303q0 33 13.5 63.5t37 53t55.5 35.5t69 13q59 0 105 -34.5t46 -100.5q0 -72 -50 -119t-124 -47q-57 0 -104.5 34t-47.5 102z" />
<glyph unicode="j" horiz-adv-x="546" d="M-268 -356l84 202q23 -12 43 -19t47 -7q51 0 76.5 38t46.5 122l207 1036h280l-211 -1049q-16 -78 -45 -144.5t-74 -116.5t-108.5 -78.5t-149.5 -28.5q-53 0 -100 10t-96 35zM279 1303q0 68 50 116.5t124 48.5q57 0 104 -34.5t47 -100.5q0 -72 -51 -119t-123 -47 q-59 0 -105 34t-46 102z" />
<glyph unicode="k" horiz-adv-x="1075" d="M29 0l288 1436h281l-168 -832h8l383 412h312l-416 -445l241 -571h-280l-154 410l-166 -166l-49 -244h-280z" />
<glyph unicode="l" horiz-adv-x="563" d="M76 174q0 53 14 125l227 1137h281l-231 -1149q-4 -16 -4.5 -23.5t-0.5 -15.5q0 -27 11.5 -37t27.5 -10h16.5t20.5 4l-8 -207q-27 -10 -63.5 -16.5t-85.5 -6.5q-111 0 -158 53.5t-47 145.5z" />
<glyph unicode="m" horiz-adv-x="1693" d="M29 0l200 1016h228l-4 -135h8q74 66 157.5 112.5t169.5 46.5q115 0 165.5 -49t70.5 -129q86 78 172 128t172 50q127 0 183.5 -66.5t56.5 -193.5q0 -35 -4.5 -70.5t-12.5 -74.5l-127 -635h-280l121 600q6 31 11 53.5t5 42.5q0 104 -102 105q-35 0 -84.5 -32t-114.5 -99 l-135 -670h-281l121 600q6 31 11 53.5t5 42.5q0 53 -25.5 79t-72.5 26q-37 0 -87 -32t-116 -99l-131 -670h-280z" />
<glyph unicode="n" horiz-adv-x="1130" d="M29 0l200 1016h228l-4 -135h8q76 66 160 112.5t182 46.5q127 0 184 -66.5t57 -193.5q0 -35 -4 -70.5t-12 -74.5l-127 -635h-280l120 600q6 31 11.5 53.5t5.5 42.5q0 104 -105 105q-47 0 -97 -32t-116 -99l-131 -670h-280z" />
<glyph unicode="o" horiz-adv-x="1091" d="M61 393q0 147 49.5 267t130.5 204t183 130t207 46q88 0 160.5 -29.5t124 -85t80 -132t28.5 -170.5q0 -147 -49 -267t-130 -204t-183.5 -130.5t-206.5 -46.5q-90 0 -162 30t-124 85t-80 132t-28 171zM344 399q0 -92 35 -145t106 -53q51 0 97.5 31.5t82 87t56 131 t20.5 165.5q0 94 -35.5 146.5t-107.5 52.5q-51 0 -97 -31.5t-81 -87t-55.5 -132.5t-20.5 -165z" />
<glyph unicode="p" horiz-adv-x="1132" d="M-47 -377l280 1393h228l2 -117h6q70 63 150.5 102t158.5 39q135 0 211 -96t76 -276q0 -145 -45 -271.5t-121 -220.5t-173 -147.5t-202 -53.5q-66 0 -119 32t-88 89h-4l-28 -198l-52 -275h-280zM371 299q23 -49 58.5 -71.5t74.5 -22.5q53 0 102 32.5t87 90t60.5 135.5 t22.5 170t-33 135t-86 43q-47 0 -105 -27.5t-103 -99.5z" />
<glyph unicode="q" horiz-adv-x="1130" d="M63 348q0 145 45.5 271t121 220.5t174 147.5t202.5 53q70 0 131.5 -35.5t89.5 -97.5h4l46 109h223l-279 -1393h-280l57 275l76 235h-4q-70 -72 -155 -115t-165 -43q-135 0 -211 96.5t-76 276.5zM354 383q0 -92 32 -135t87 -43q47 0 105.5 31.5t111.5 117.5l72 361 q-25 51 -62.5 73.5t-72.5 22.5q-53 0 -102.5 -33t-87.5 -90t-60.5 -135t-22.5 -170z" />
<glyph unicode="r" horiz-adv-x="786" d="M29 0l200 1016h228l-13 -197h9q59 96 141 158.5t170 62.5q39 0 64.5 -5t41.5 -15l-92 -242q-20 10 -48 13.5t-52 3.5q-68 0 -131.5 -49.5t-122.5 -157.5l-115 -588h-280z" />
<glyph unicode="s" horiz-adv-x="868" d="M-16 172l161 135q106 -127 220 -127q59 0 101 28t42 68q0 45 -45 74t-131 78q-86 47 -145.5 115.5t-59.5 165.5q0 72 30.5 133t84 105t125 68.5t153.5 24.5q104 0 187.5 -45t146.5 -110l-154 -146q-37 39 -82 65.5t-98 26.5q-59 0 -95 -27.5t-36 -68.5q0 -25 14.5 -43 t39 -33.5t54 -31t60.5 -33.5q92 -49 152.5 -114.5t60.5 -170.5q0 -74 -31.5 -135t-87 -105t-133.5 -69t-170 -25q-47 0 -98 13.5t-99.5 38t-92.5 61.5t-74 84z" />
<glyph unicode="t" horiz-adv-x="751" d="M96 797l41 207l150 12l86 266h235l-51 -266h231l-43 -219h-237l-88 -437q-4 -18 -4 -34.5v-32.5q0 -98 104 -98q23 0 43.5 6t40.5 16l49 -197q-41 -16 -100 -30.5t-137 -14.5q-154 0 -221.5 76t-67.5 193q0 33 5 64.5t11 64.5l88 424h-135z" />
<glyph unicode="u" horiz-adv-x="1116" d="M80 238q0 35 4 69.5t12 73.5l127 635h279l-119 -600q-8 -31 -12 -53.5t-4 -43.5q0 -104 102 -104q86 0 203 131l131 670h280l-200 -1016h-228l4 137h-8q-70 -66 -154.5 -114t-177.5 -48q-127 0 -183 67t-56 196z" />
<glyph unicode="v" horiz-adv-x="1021" d="M123 1016h278l35 -498q6 -76 8 -153.5t5 -155.5h8q35 78 67.5 154.5t67.5 154.5l227 498h275l-519 -1016h-323z" />
<glyph unicode="w" horiz-adv-x="1531" d="M147 1016h277l2 -492q-2 -74 -5 -148.5t-7 -150.5h8q29 76 55.5 152t59.5 147l208 492h244l17 -492q1 -49 1 -99v-49q-1 -74 -1 -151h8q29 76 53.5 151t52.5 148l191 492h260l-434 -1016h-330l-8 426q2 72 2 144.5t2 152.5h-8q-29 -80 -53.5 -152.5t-53.5 -144.5 l-174 -426h-317z" />
<glyph unicode="x" horiz-adv-x="1003" d="M-82 0l430 543l-176 473h283l61 -174q12 -45 24.5 -88t24.5 -86h8q27 43 53.5 87t51.5 87l104 174h299l-397 -537l188 -479h-286l-64 178q-14 43 -28.5 88t-28.5 90h-8q-29 -45 -57.5 -89t-57.5 -89l-123 -178h-301z" />
<glyph unicode="y" horiz-adv-x="1021" d="M-72 -356l86 200q35 -20 76 -20q55 0 106.5 40t86.5 107l24 52l-176 993h279l47 -459q8 -66 12 -149.5t6 -155.5h8q33 72 68 153.5t67 151.5l213 459h273l-549 -1039q-53 -92 -105.5 -161.5t-109.5 -116.5t-122.5 -71.5t-143.5 -24.5q-29 0 -72 12t-74 29z" />
<glyph unicode="z" horiz-adv-x="907" d="M-20 0l30 158l539 639h-367l41 219h719l-31 -162l-538 -635h426l-43 -219h-776z" />
<glyph unicode="{" horiz-adv-x="671" d="M53 487l37 164q51 2 86 16.5t58.5 37t37 50t19.5 54.5q8 47 13 88t9 81t10.5 83t16.5 96q16 82 39.5 138.5t58.5 91t84 49t117 14.5h131l-33 -150h-39q-63 0 -91.5 -34.5t-43.5 -118.5q-16 -82 -28.5 -162t-28.5 -172q-25 -117 -73 -173t-130 -75v-8q57 -14 86 -47 t29 -96q0 -51 -14.5 -119t-33 -137.5t-32.5 -134t-14 -107.5q0 -41 17 -59.5t69 -18.5h34l-28 -149h-125q-111 0 -155 45t-44 133q0 59 16.5 131t36 141.5t36 130t16.5 97.5q0 45 -30 80.5t-114 39.5z" />
<glyph unicode="|" horiz-adv-x="522" d="M180 -512v2048h176v-2048h-176z" />
<glyph unicode="}" horiz-adv-x="677" d="M-78 -311l33 149h39q63 0 91 35t44 119q16 82 28.5 161.5t28.5 172.5q25 117 73 173t130 74v9q-59 14 -87 47t-28 96q0 51 14.5 118.5t33 137.5t33 133.5t14.5 106.5t-17.5 61t-68.5 18h-35l28 150h127q109 0 153 -45t44 -133q0 -59 -16.5 -131t-36 -141.5t-35.5 -130 t-16 -97.5q0 -45 29.5 -82t113.5 -39l-37 -164q-51 -2 -86 -16t-58.5 -36.5t-36.5 -50.5t-20 -54q-10 -47 -14 -88t-8 -81t-10.5 -84t-16.5 -97q-16 -84 -39.5 -139.5t-58.5 -89.5t-84 -48t-117 -14h-131z" />
<glyph unicode="~" d="M78 643q66 117 143.5 163t149.5 46q57 0 103 -24.5t85 -54.5t75 -54.5t77 -24.5q82 0 139 115l143 -96q-66 -117 -142.5 -163t-150.5 -46q-57 0 -102 24.5t-84 54t-76 54.5t-78 25q-82 0 -139 -115z" />
<glyph unicode="&#xa1;" horiz-adv-x="677" d="M35 -356l59 258l170 651h185l-95 -651l-39 -258h-280zM246 836q0 39 14 75.5t41 65.5t63.5 46t81.5 17q66 0 106 -42t40 -109q0 -37 -14.5 -75t-41 -66.5t-63.5 -47t-82 -18.5q-66 0 -105.5 44t-39.5 110z" />
<glyph unicode="&#xa2;" d="M147 586q0 129 45.5 234.5t120 182t170 124t195.5 61.5l39 196h155l-38 -198q74 -14 127 -54t98 -90l-162 -153q-29 27 -54.5 44t-54.5 28l-114 -576q90 12 164 68l86 -181q-70 -45 -142.5 -73.5t-152.5 -38.5l-39 -197h-156l39 199q-147 23 -236.5 132t-89.5 292z M422 629q0 -164 100 -223l109 546q-92 -33 -150.5 -118.5t-58.5 -204.5z" />
<glyph unicode="&#xa3;" d="M-4 0l35 172q125 53 198.5 150.5t81.5 226.5h-194l37 190l147 11q-4 31 -6 59.5t-2 54.5q0 106 38 194.5t102.5 152t152.5 97t188 33.5q109 0 186.5 -47t135.5 -127l-181 -147q-35 47 -69.5 71.5t-85.5 24.5q-84 0 -145.5 -69.5t-61.5 -219.5q0 -18 1 -37.5t3 -39.5h299 l-41 -201h-250q-8 -92 -38.5 -163t-90.5 -142l-2 -8h481l-41 -236h-878z" />
<glyph unicode="&#xa4;" d="M14 336l136 115q-35 66 -35 155q0 92 32.5 170t85.5 137l-92 117l148 127l104 -129q109 57 223 57q59 0 110.5 -14t92.5 -39l146 127l120 -143l-135 -117q16 -35 24.5 -71.5t8.5 -79.5q0 -92 -31.5 -169t-85.5 -137l101 -123l-150 -129l-108 136q-106 -57 -228 -58 q-117 0 -198 51l-148 -126zM371 629q0 -78 37.5 -120t103.5 -42q41 0 80 19.5t68.5 53t48 82t18.5 103.5q0 78 -37.5 120t-103.5 42q-41 0 -80 -19.5t-68.5 -53.5t-48 -82t-18.5 -103z" />
<glyph unicode="&#xa5;" d="M37 305l26 135h304l22 117h-303l27 135h243l-168 611h285l47 -289q10 -68 20.5 -135.5t24.5 -135.5h6q41 70 79 137.5t77 133.5l160 289h278l-409 -611h241l-26 -135h-303l-25 -117h303l-26 -135h-304l-61 -305h-276l61 305h-303z" />
<glyph unicode="&#xa6;" horiz-adv-x="522" d="M180 420h176v-932h-176v932zM180 633v903h176v-903h-176z" />
<glyph unicode="&#xa7;" horiz-adv-x="1034" d="M2 8l139 174q51 -53 122 -95t145 -42q57 0 88.5 26.5t31.5 73.5q0 37 -31.5 67t-78.5 60.5t-103.5 64.5t-103.5 77t-79 101t-32 136q0 104 60.5 181t152.5 122q-33 55 -32 123q0 72 25.5 133.5t73.5 106.5t114.5 70.5t146.5 25.5q96 0 186.5 -43t161.5 -121l-141 -155 q-41 41 -94.5 73.5t-114.5 32.5q-43 0 -75 -23.5t-32 -70.5q0 -35 33 -64.5t82 -60.5t106.5 -66.5t106.5 -81t82 -102.5t33 -133q0 -115 -57.5 -190.5t-155.5 -126.5q10 -23 15 -48.5t5 -54.5q0 -78 -28.5 -140.5t-79.5 -107.5t-123 -69.5t-158 -24.5q-98 0 -202.5 45 t-188.5 127zM340 684q0 -43 28.5 -77t73.5 -63.5t97.5 -59t101.5 -66.5q43 23 66.5 57.5t23.5 89.5q0 41 -28.5 75t-71.5 63.5t-95.5 60.5t-101.5 65q-41 -23 -67.5 -57.5t-26.5 -87.5z" />
<glyph unicode="&#xa8;" horiz-adv-x="1093" d="M373 1292q0 61 44 107.5t110 46.5q51 0 86 -33t35 -90q0 -63 -44 -107.5t-110 -44.5q-51 0 -86 31t-35 90zM764 1292q0 61 43 107.5t109 46.5q53 0 87 -33t34 -90q0 -63 -44 -107.5t-110 -44.5q-51 0 -85 31t-34 90z" />
<glyph unicode="&#xa9;" horiz-adv-x="1376" d="M61 551q0 162 56.5 306t158 252t242.5 170t309 62q119 0 220.5 -43t174 -117.5t113.5 -179t41 -227.5q0 -162 -56 -306t-157.5 -251.5t-243 -171t-309.5 -63.5q-121 0 -221 43t-173 118.5t-114 180t-41 227.5zM193 563q0 -94 27.5 -177t80.5 -145.5t134 -98.5t186 -36 q133 0 247.5 52.5t198.5 142.5t131 209t47 252q0 92 -27.5 175t-81 145.5t-134.5 99.5t-185 37q-133 0 -247.5 -53.5t-198.5 -142.5t-131 -209t-47 -251zM356 578q0 111 41 198.5t106.5 149t145.5 95.5t160 34q72 0 125 -34t84 -73l-117 -114q-49 57 -117 57 q-39 0 -78.5 -21.5t-72.5 -59.5t-53.5 -91t-20.5 -117q0 -84 42 -130t120 -46q43 0 75.5 14.5t75.5 42.5l78 -123q-125 -100 -274 -100q-143 0 -231.5 84t-88.5 234z" />
<glyph unicode="&#xaa;" horiz-adv-x="747" d="M111 768q0 96 30.5 180t80.5 145.5t115.5 97.5t137.5 36q43 0 80 -23.5t57 -64.5h9l30 71h160l-135 -673h-160l4 86h-8q-45 -47 -100.5 -75t-108.5 -28q-90 0 -141 63.5t-51 184.5zM313 793q0 -59 20.5 -86t51.5 -27q35 0 72 21.5t71 76.5l41 228q-14 33 -36.5 47 t-45.5 14q-33 0 -64.5 -21.5t-56 -58.5t-39 -87t-14.5 -107z" />
<glyph unicode="&#xab;" horiz-adv-x="942" d="M82 424l37 201l313 284l86 -92l-272 -311l160 -316l-111 -71zM467 424l37 201l313 284l86 -92l-272 -311l160 -316l-111 -71z" />
<glyph unicode="&#xac;" d="M98 578v198h895v-581h-200v383h-695z" />
<glyph unicode="&#xad;" horiz-adv-x="655" d="M72 420l43 198h479l-43 -198h-479z" />
<glyph unicode="&#xae;" horiz-adv-x="909" d="M166 1001q0 88 30.5 171t87 147.5t134.5 103.5t174 39q72 0 135.5 -26.5t112.5 -74.5t77.5 -114.5t30.5 -146.5q0 -88 -31.5 -171t-88 -147.5t-134.5 -103.5t-172 -39q-72 0 -136 26.5t-113.5 74.5t-78 115t-28.5 146zM270 1010q0 -57 18.5 -107.5t52.5 -87.5t81 -58.5 t106 -21.5q70 0 127.5 29t99.5 78t65.5 113.5t23.5 136.5q0 57 -18.5 107t-52.5 87t-82 58.5t-105 21.5q-70 0 -127.5 -28.5t-99.5 -78t-65.5 -114t-23.5 -135.5zM362 852l82 401h168q61 0 99.5 -30.5t38.5 -87.5q0 -41 -26 -77t-75 -54l51 -152h-110l-37 127h-53l-27 -127 h-111zM514 1057h33q41 0 61.5 19.5t20.5 47.5q0 23 -12.5 35t-43.5 12h-36z" />
<glyph unicode="&#xaf;" horiz-adv-x="1093" d="M416 1214l37 179h539l-37 -179h-539z" />
<glyph unicode="&#xb0;" horiz-adv-x="712" d="M193 1083q0 68 25.5 126.5t68.5 101.5t99 68.5t118 25.5q115 0 185.5 -70.5t70.5 -187.5q0 -68 -25.5 -126t-68.5 -101t-99.5 -69t-117.5 -26q-113 0 -184.5 71t-71.5 187zM344 1085q0 -49 29.5 -85.5t87.5 -36.5q33 0 60.5 15t47 39.5t30.5 57.5t11 70q0 49 -29.5 86 t-86.5 37q-68 0 -109 -55.5t-41 -127.5z" />
<glyph unicode="&#xb1;" d="M98 0v199h895v-199h-895zM98 637v199h344v319h207v-319h344v-199h-348v-322h-205v322h-342z" />
<glyph unicode="&#xb2;" horiz-adv-x="745" d="M156 901l22 113q215 141 321.5 246.5t106.5 195.5q0 41 -24.5 65.5t-73.5 24.5q-33 0 -62.5 -20.5t-64.5 -53.5l-115 121q70 63 132.5 97t146.5 34q123 0 194.5 -61.5t71.5 -169.5q0 -111 -79 -209t-214 -209h240l-35 -174h-567z" />
<glyph unicode="&#xb3;" horiz-adv-x="737" d="M162 1040l133 97q57 -96 149 -97q59 0 95.5 27t36.5 74t-36 76.5t-141 29.5l25 125q57 0 94 10.5t58.5 26.5t29.5 36.5t8 43.5q0 35 -23.5 55.5t-64.5 20.5q-37 0 -66.5 -11.5t-70.5 -40.5l-86 136q72 43 134.5 59t133.5 16q111 0 179.5 -54t68.5 -144q0 -156 -164 -219 q57 -29 88 -75t31 -100q0 -61 -24.5 -108t-67.5 -80t-99.5 -50.5t-119.5 -17.5q-111 0 -184.5 46.5t-116.5 117.5z" />
<glyph unicode="&#xb4;" horiz-adv-x="1093" d="M510 1174l238 305h281l-306 -305h-213z" />
<glyph unicode="&#xb5;" horiz-adv-x="1118" d="M-47 -369l274 1385h281l-121 -600q-6 -31 -11 -53.5t-5 -43.5q0 -104 104 -104q84 0 203 131l131 670h276l-196 -1016h-227l4 137h-9q-47 -63 -106 -105t-121 -42q-41 0 -74.5 11t-50.5 44l-18 -125l-56 -289h-278z" />
<glyph unicode="&#xb6;" horiz-adv-x="1245" d="M141 784q0 143 50.5 248t133.5 172.5t191.5 99t224.5 31.5h90l-186 -925h-61q-88 0 -168 24.5t-141.5 71.5t-97.5 117.5t-36 160.5zM643 -164l297 1499h281l-297 -1499h-281z" />
<glyph unicode="&#xb7;" horiz-adv-x="595" d="M155 641q0 37 14.5 75t41 66.5t63.5 47t82 18.5q66 0 104.5 -44t38.5 -110q0 -39 -14 -75.5t-41 -65.5t-63.5 -46.5t-81.5 -17.5q-66 0 -105 42t-39 110z" />
<glyph unicode="&#xb8;" horiz-adv-x="1093" d="M170 -338q78 8 131.5 32.5t53.5 69.5q0 25 -19.5 44.5t-74.5 35.5l110 164h164l-61 -100q39 -16 64.5 -44t25.5 -77q0 -59 -32 -102t-85 -72t-123 -44t-145 -20z" />
<glyph unicode="&#xb9;" horiz-adv-x="770" d="M348 1485l25 127q84 12 134 32.5t105 55.5h160l-155 -799h-209l118 584h-178z" />
<glyph unicode="&#xba;" horiz-adv-x="733" d="M106 799q0 98 33 177t86.5 134t123 86t140.5 31q117 0 193 -73t76 -206q0 -98 -33 -177t-86 -134t-121.5 -86t-140.5 -31q-117 0 -194 73t-77 206zM305 803q0 -59 21.5 -93t66.5 -34q37 0 68 20.5t53.5 57.5t34.5 86t12 104q0 59 -21.5 92t-66.5 33q-37 0 -67.5 -20.5 t-53 -56.5t-35 -85t-12.5 -104z" />
<glyph unicode="&#xbb;" horiz-adv-x="942" d="M55 211l273 311l-162 316l113 71l213 -305l-37 -201l-314 -284zM440 211l273 311l-162 316l113 71l213 -305l-37 -201l-314 -284z" />
<glyph unicode="&#xbc;" horiz-adv-x="1591" d="M217 1137l25 127q84 12 134 32.5t105 55.5h160l-155 -799h-209l118 584h-178zM252 -25l970 1401h164l-970 -1401h-164zM832 182l22 107l400 510h252l-95 -480h117l-29 -137h-114l-35 -182h-178l37 182h-377zM1045 319h190l21 99l55 246h-8l-123 -177z" />
<glyph unicode="&#xbd;" horiz-adv-x="1665" d="M209 1137l25 127q84 12 134 32.5t105 55.5h160l-155 -799h-209l118 584h-178zM224 -25l970 1401h164l-970 -1401h-164zM906 0l22 113q215 141 321.5 246.5t106.5 195.5q0 41 -24.5 65.5t-73.5 24.5q-33 0 -62.5 -20.5t-64.5 -53.5l-115 121q70 63 132.5 97t146.5 34 q123 0 194.5 -61.5t71.5 -169.5q0 -111 -79 -209t-214 -209h240l-35 -174h-567z" />
<glyph unicode="&#xbe;" horiz-adv-x="1613" d="M80 692l133 97q57 -96 149 -97q59 0 95.5 27t36.5 74t-36 76.5t-141 29.5l25 125q57 0 94 10.5t58.5 26.5t29.5 36.5t8 43.5q0 35 -23.5 55.5t-64.5 20.5q-37 0 -66.5 -11.5t-70.5 -40.5l-86 136q72 43 134.5 59t133.5 16q111 0 179.5 -54t68.5 -144q0 -156 -164 -219 q57 -29 88 -75t31 -100q0 -61 -24.5 -108t-67.5 -80t-99.5 -50.5t-119.5 -17.5q-111 0 -184.5 46.5t-116.5 117.5zM301 -25l970 1401h164l-970 -1401h-164zM856 182l22 107l400 510h252l-95 -480h117l-29 -137h-114l-35 -182h-178l37 182h-377zM1069 319h190l21 99l55 246 h-8l-123 -177z" />
<glyph unicode="&#xbf;" horiz-adv-x="909" d="M-2 -70q0 80 26.5 138.5t67.5 105.5t90 88t93 84t78 95.5t44 121.5l238 -22q-8 -82 -38 -142.5t-71 -107.5t-86 -84t-83 -74t-62.5 -75t-24.5 -87q0 -59 36 -92t97 -33q80 0 156 78l143 -157q-72 -72 -156.5 -110t-176.5 -38q-84 0 -151.5 21.5t-117 61.5t-76 97.5 t-26.5 130.5zM406 836q0 39 14 75.5t39.5 65.5t62.5 46t82 17q66 0 106 -42t40 -109q0 -37 -14.5 -74t-41 -65.5t-63.5 -47t-82 -18.5q-66 0 -104.5 43t-38.5 109z" />
<glyph unicode="&#xc0;" horiz-adv-x="1122" d="M-127 0l705 1335h335l134 -1335h-293l-17 336h-397l-158 -336h-309zM440 547h287l-8 176q-4 98 -8 194.5t-9 202.5h-8q-43 -104 -84 -200.5t-88 -196.5zM469 1679h286l115 -241h-211z" />
<glyph unicode="&#xc1;" horiz-adv-x="1122" d="M-127 0l705 1335h335l134 -1335h-293l-17 336h-397l-158 -336h-309zM440 547h287l-8 176q-4 98 -8 194.5t-9 202.5h-8q-43 -104 -84 -200.5t-88 -196.5zM585 1438l209 241h303l-282 -241h-230z" />
<glyph unicode="&#xc2;" horiz-adv-x="1122" d="M-127 0l705 1335h335l134 -1335h-293l-17 336h-397l-158 -336h-309zM409 1438l238 241h270l141 -241h-204l-86 129h-5l-131 -129h-223zM440 547h287l-8 176q-4 98 -8 194.5t-9 202.5h-8q-43 -104 -84 -200.5t-88 -196.5z" />
<glyph unicode="&#xc3;" horiz-adv-x="1122" d="M-127 0l705 1335h335l134 -1335h-293l-17 336h-397l-158 -336h-309zM405 1440q35 129 103.5 197.5t142.5 68.5q45 0 75.5 -15.5t55 -33t48.5 -32.5t54 -15q49 0 86 92h148q-35 -129 -104.5 -197.5t-143.5 -68.5q-45 0 -76 15t-55.5 32.5t-47 33t-52.5 15.5q-49 0 -89 -92 h-145zM440 547h287l-8 176q-4 98 -8 194.5t-9 202.5h-8q-43 -104 -84 -200.5t-88 -196.5z" />
<glyph unicode="&#xc4;" horiz-adv-x="1122" d="M-127 0l705 1335h335l134 -1335h-293l-17 336h-397l-158 -336h-309zM434 1554q0 27 11 54.5t31.5 50t48.5 36t60 13.5q47 0 82 -30.5t35 -86.5q0 -57 -41.5 -106t-107.5 -49q-51 0 -85 31.5t-34 86.5zM440 547h287l-8 176q-4 98 -8 194.5t-9 202.5h-8 q-43 -104 -84 -200.5t-88 -196.5zM825 1554q0 27 11 54.5t30.5 50t47.5 36t60 13.5q47 0 82 -30.5t35 -86.5q0 -57 -41.5 -106t-107.5 -49q-49 0 -83 31.5t-34 86.5z" />
<glyph unicode="&#xc5;" horiz-adv-x="1122" d="M-127 0l705 1335h335l134 -1335h-293l-17 336h-397l-158 -336h-309zM440 547h287l-8 176q-4 98 -8 194.5t-9 202.5h-8q-43 -104 -84 -200.5t-88 -196.5zM553 1602q0 45 18 86t50 71.5t74 49t91 18.5q41 0 78 -11.5t65.5 -33t46 -54t17.5 -77.5q0 -47 -18.5 -88t-50 -72 t-75 -48.5t-90.5 -17.5q-86 0 -146 42t-60 135zM688 1612q0 -33 20.5 -54.5t54.5 -21.5q37 0 65 30.5t28 73.5q0 33 -19.5 54.5t-54.5 21.5q-41 0 -67.5 -31.5t-26.5 -72.5z" />
<glyph unicode="&#xc6;" horiz-adv-x="1716" d="M-72 0l865 1335h962l-47 -235h-496l-55 -291h418l-47 -236h-416l-72 -337h514l-47 -236h-792l63 317h-342l-192 -317h-316zM567 537h254l119 596h-6q-61 -100 -119.5 -192.5t-118.5 -190.5z" />
<glyph unicode="&#xc7;" horiz-adv-x="1161" d="M115 535q0 172 55 322.5t150.5 262t225.5 176t279 64.5q117 0 208 -56.5t149 -156.5l-193 -148q-37 59 -80 88t-98 29q-86 0 -159.5 -46t-129 -124t-87.5 -180t-32 -213q0 -156 66 -246t213 -90q59 0 116.5 28.5t110.5 73.5l117 -180q-31 -29 -72 -57.5t-92 -52 t-111.5 -39t-127.5 -15.5q-117 0 -210.5 38t-160 111t-102 176.5t-35.5 234.5zM315 -338q78 8 131.5 32.5t53.5 69.5q0 25 -19.5 44.5t-74.5 35.5l110 164h164l-61 -100q39 -16 64.5 -44t25.5 -77q0 -59 -32 -102t-85 -72t-123 -44t-145 -20z" />
<glyph unicode="&#xc8;" horiz-adv-x="1079" d="M57 0l269 1335h790l-45 -235h-514l-57 -291h436l-45 -236h-436l-70 -337h530l-45 -236h-813zM474 1679h286l115 -241h-211z" />
<glyph unicode="&#xc9;" horiz-adv-x="1079" d="M57 0l269 1335h790l-45 -235h-514l-57 -291h436l-45 -236h-436l-70 -337h530l-45 -236h-813zM590 1438l209 241h303l-282 -241h-230z" />
<glyph unicode="&#xca;" horiz-adv-x="1079" d="M57 0l269 1335h790l-45 -235h-514l-57 -291h436l-45 -236h-436l-70 -337h530l-45 -236h-813zM414 1438l238 241h270l141 -241h-204l-86 129h-5l-131 -129h-223z" />
<glyph unicode="&#xcb;" horiz-adv-x="1079" d="M57 0l269 1335h790l-45 -235h-514l-57 -291h436l-45 -236h-436l-70 -337h530l-45 -236h-813zM439 1554q0 27 11 54.5t31.5 50t48.5 36t60 13.5q47 0 82 -30.5t35 -86.5q0 -57 -41.5 -106t-107.5 -49q-51 0 -85 31.5t-34 86.5zM830 1554q0 27 11 54.5t30.5 50t47.5 36 t60 13.5q47 0 82 -30.5t35 -86.5q0 -57 -41.5 -106t-107.5 -49q-49 0 -83 31.5t-34 86.5z" />
<glyph unicode="&#xcc;" horiz-adv-x="602" d="M57 0l269 1335h280l-266 -1335h-283zM195 1679h286l115 -241h-211z" />
<glyph unicode="&#xcd;" horiz-adv-x="602" d="M57 0l269 1335h280l-266 -1335h-283zM311 1438l209 241h303l-282 -241h-230z" />
<glyph unicode="&#xce;" horiz-adv-x="602" d="M57 0l269 1335h280l-266 -1335h-283zM135 1438l238 241h270l141 -241h-204l-86 129h-5l-131 -129h-223z" />
<glyph unicode="&#xcf;" horiz-adv-x="602" d="M57 0l269 1335h280l-266 -1335h-283zM160 1554q0 27 11 54.5t31.5 50t48.5 36t60 13.5q47 0 82 -30.5t35 -86.5q0 -57 -41.5 -106t-107.5 -49q-51 0 -85 31.5t-34 86.5zM551 1554q0 27 11 54.5t30.5 50t47.5 36t60 13.5q47 0 82 -30.5t35 -86.5q0 -57 -41.5 -106 t-107.5 -49q-49 0 -83 31.5t-34 86.5z" />
<glyph unicode="&#xd0;" horiz-adv-x="1298" d="M78 629l24 127l146 10l114 569h293q281 0 435.5 -129t154.5 -395q0 -197 -54 -348.5t-151.5 -255t-232.5 -155.5t-295 -52h-418l127 629h-143zM422 225h84q96 0 179 34t143.5 103.5t95 177t34.5 253.5q0 166 -83.5 241.5t-225.5 75.5h-53l-68 -344h256l-30 -137h-252z " />
<glyph unicode="&#xd1;" horiz-adv-x="1316" d="M57 0l269 1335h272l217 -696l72 -293h8q6 51 10 112.5t10.5 124t14.5 126t20 120.5l103 506h266l-266 -1335h-271l-219 694l-67 297h-9q-10 -113 -23 -237.5t-36 -241.5l-102 -512h-269zM510 1440q35 129 103.5 197.5t142.5 68.5q45 0 75.5 -15.5t55 -33t48.5 -32.5 t54 -15q49 0 86 92h148q-35 -129 -104.5 -197.5t-143.5 -68.5q-45 0 -76 15t-55.5 32.5t-47 33t-52.5 15.5q-49 0 -89 -92h-145z" />
<glyph unicode="&#xd2;" horiz-adv-x="1351" d="M117 541q0 176 55 326.5t148.5 260t216 171t258.5 61.5q115 0 207 -39t157.5 -111.5t101 -177t35.5 -237.5q0 -176 -55 -327t-148.5 -260.5t-216.5 -171t-258 -61.5q-115 0 -207 38t-157.5 111t-101 178.5t-35.5 238.5zM403 559q0 -160 59.5 -251t170.5 -91 q72 0 139.5 44t120.5 120t85 177t32 218q0 160 -58.5 250t-169.5 90q-72 0 -139.5 -44t-120.5 -118.5t-86 -176t-33 -218.5zM582 1679h286l115 -241h-211z" />
<glyph unicode="&#xd3;" horiz-adv-x="1351" d="M117 541q0 176 55 326.5t148.5 260t216 171t258.5 61.5q115 0 207 -39t157.5 -111.5t101 -177t35.5 -237.5q0 -176 -55 -327t-148.5 -260.5t-216.5 -171t-258 -61.5q-115 0 -207 38t-157.5 111t-101 178.5t-35.5 238.5zM403 559q0 -160 59.5 -251t170.5 -91 q72 0 139.5 44t120.5 120t85 177t32 218q0 160 -58.5 250t-169.5 90q-72 0 -139.5 -44t-120.5 -118.5t-86 -176t-33 -218.5zM698 1438l209 241h303l-282 -241h-230z" />
<glyph unicode="&#xd4;" horiz-adv-x="1351" d="M117 541q0 176 55 326.5t148.5 260t216 171t258.5 61.5q115 0 207 -39t157.5 -111.5t101 -177t35.5 -237.5q0 -176 -55 -327t-148.5 -260.5t-216.5 -171t-258 -61.5q-115 0 -207 38t-157.5 111t-101 178.5t-35.5 238.5zM403 559q0 -160 59.5 -251t170.5 -91 q72 0 139.5 44t120.5 120t85 177t32 218q0 160 -58.5 250t-169.5 90q-72 0 -139.5 -44t-120.5 -118.5t-86 -176t-33 -218.5zM522 1438l238 241h270l141 -241h-204l-86 129h-5l-131 -129h-223z" />
<glyph unicode="&#xd5;" horiz-adv-x="1351" d="M117 541q0 176 55 326.5t148.5 260t216 171t258.5 61.5q115 0 207 -39t157.5 -111.5t101 -177t35.5 -237.5q0 -176 -55 -327t-148.5 -260.5t-216.5 -171t-258 -61.5q-115 0 -207 38t-157.5 111t-101 178.5t-35.5 238.5zM403 559q0 -160 59.5 -251t170.5 -91 q72 0 139.5 44t120.5 120t85 177t32 218q0 160 -58.5 250t-169.5 90q-72 0 -139.5 -44t-120.5 -118.5t-86 -176t-33 -218.5zM518 1440q35 129 103.5 197.5t142.5 68.5q45 0 75.5 -15.5t55 -33t48.5 -32.5t54 -15q49 0 86 92h148q-35 -129 -104.5 -197.5t-143.5 -68.5 q-45 0 -76 15t-55.5 32.5t-47 33t-52.5 15.5q-49 0 -89 -92h-145z" />
<glyph unicode="&#xd6;" horiz-adv-x="1351" d="M117 541q0 176 55 326.5t148.5 260t216 171t258.5 61.5q115 0 207 -39t157.5 -111.5t101 -177t35.5 -237.5q0 -176 -55 -327t-148.5 -260.5t-216.5 -171t-258 -61.5q-115 0 -207 38t-157.5 111t-101 178.5t-35.5 238.5zM403 559q0 -160 59.5 -251t170.5 -91 q72 0 139.5 44t120.5 120t85 177t32 218q0 160 -58.5 250t-169.5 90q-72 0 -139.5 -44t-120.5 -118.5t-86 -176t-33 -218.5zM547 1554q0 27 11 54.5t31.5 50t48.5 36t60 13.5q47 0 82 -30.5t35 -86.5q0 -57 -41.5 -106t-107.5 -49q-51 0 -85 31.5t-34 86.5zM938 1554 q0 27 11 54.5t30.5 50t47.5 36t60 13.5q47 0 82 -30.5t35 -86.5q0 -57 -41.5 -106t-107.5 -49q-49 0 -83 31.5t-34 86.5z" />
<glyph unicode="&#xd7;" d="M129 383l279 293l-279 293l137 137l281 -291l278 291l140 -137l-281 -293l281 -293l-140 -137l-278 293l-281 -293z" />
<glyph unicode="&#xd8;" horiz-adv-x="1351" d="M-20 33l198 205q-29 63 -45 138t-16 165q0 176 55 326.5t148.5 260t216 171t258.5 61.5q213 0 346 -129l192 199l123 -115l-217 -225q57 -127 57 -295q0 -176 -55 -327t-148.5 -260.5t-216 -171t-258.5 -61.5q-209 0 -337 123l-175 -180zM403 559q0 -23 1.5 -43t3.5 -41 l540 557q-61 84 -166 84q-72 0 -139.5 -44t-120.5 -118.5t-86 -176t-33 -218.5zM471 295q61 -78 162 -78q72 0 139.5 44t120.5 120t85 177t32 218q0 20 -1 37.5t-3 36.5z" />
<glyph unicode="&#xd9;" horiz-adv-x="1316" d="M154 440q0 45 8 103.5t18 111.5l137 680h281l-145 -731q-8 -41 -12.5 -80t-4.5 -75q0 -113 45 -172.5t158 -59.5q96 0 159.5 79t100.5 265l156 774h274l-155 -770q-61 -307 -195.5 -448.5t-347.5 -141.5q-238 0 -357.5 114t-119.5 351zM566 1679h286l115 -241h-211z" />
<glyph unicode="&#xda;" horiz-adv-x="1316" d="M154 440q0 45 8 103.5t18 111.5l137 680h281l-145 -731q-8 -41 -12.5 -80t-4.5 -75q0 -113 45 -172.5t158 -59.5q96 0 159.5 79t100.5 265l156 774h274l-155 -770q-61 -307 -195.5 -448.5t-347.5 -141.5q-238 0 -357.5 114t-119.5 351zM682 1438l209 241h303l-282 -241 h-230z" />
<glyph unicode="&#xdb;" horiz-adv-x="1316" d="M154 440q0 45 8 103.5t18 111.5l137 680h281l-145 -731q-8 -41 -12.5 -80t-4.5 -75q0 -113 45 -172.5t158 -59.5q96 0 159.5 79t100.5 265l156 774h274l-155 -770q-61 -307 -195.5 -448.5t-347.5 -141.5q-238 0 -357.5 114t-119.5 351zM506 1438l238 241h270l141 -241 h-204l-86 129h-5l-131 -129h-223z" />
<glyph unicode="&#xdc;" horiz-adv-x="1316" d="M154 440q0 45 8 103.5t18 111.5l137 680h281l-145 -731q-8 -41 -12.5 -80t-4.5 -75q0 -113 45 -172.5t158 -59.5q96 0 159.5 79t100.5 265l156 774h274l-155 -770q-61 -307 -195.5 -448.5t-347.5 -141.5q-238 0 -357.5 114t-119.5 351zM531 1554q0 27 11 54.5t31.5 50 t48.5 36t60 13.5q47 0 82 -30.5t35 -86.5q0 -57 -41.5 -106t-107.5 -49q-51 0 -85 31.5t-34 86.5zM922 1554q0 27 11 54.5t30.5 50t47.5 36t60 13.5q47 0 82 -30.5t35 -86.5q0 -57 -41.5 -106t-107.5 -49q-49 0 -83 31.5t-34 86.5z" />
<glyph unicode="&#xdd;" d="M164 1335h291l57 -321q14 -76 25.5 -145.5t25.5 -147.5h8q41 78 80 148.5t84 148.5l187 317h301l-566 -852l-96 -483h-278l94 483zM526 1438l209 241h303l-282 -241h-230z" />
<glyph unicode="&#xde;" horiz-adv-x="1218" d="M57 0l269 1352h280l-43 -213h180q92 0 170 -19.5t135.5 -61.5t90 -109.5t32.5 -164.5q0 -139 -50 -237t-134 -160.5t-196.5 -91.5t-237.5 -29h-164l-53 -266h-279zM434 489h146q154 0 233.5 63.5t79.5 190.5q0 90 -54.5 131t-154.5 41h-166z" />
<glyph unicode="&#xdf;" horiz-adv-x="1247" d="M29 0l209 1034q18 90 59 168t103.5 135.5t146.5 90t188 32.5q72 0 140.5 -18.5t122 -55t86 -95t32.5 -138.5q0 -57 -17.5 -101t-43 -79t-56 -62.5t-56 -54.5t-43 -52.5t-17.5 -55.5q0 -31 19.5 -56.5t49 -51.5t64.5 -54.5t64.5 -65.5t49 -82t19.5 -104 q0 -76 -29.5 -141.5t-81 -113.5t-122 -76t-150.5 -28q-78 0 -154.5 21.5t-146.5 69.5l115 186q41 -29 86 -48.5t98 -19.5q55 0 90 34t35 87q0 35 -20.5 62.5t-51.5 54.5t-67.5 53.5t-67.5 59t-51.5 71.5t-20.5 92q0 70 37 118t81 92t81 90t37 114q0 59 -27.5 92t-93.5 33 q-43 0 -78 -20.5t-62.5 -55.5t-47 -81t-31.5 -99l-197 -981h-280z" />
<glyph unicode="&#xe0;" horiz-adv-x="1130" d="M63 348q0 145 45.5 271t121 220.5t174 147.5t202.5 53q70 0 131.5 -35.5t89.5 -97.5h4l46 109h223l-203 -1016h-227l4 133h-6q-70 -72 -154 -115t-164 -43q-135 0 -211 96.5t-76 276.5zM354 383q0 -92 32 -135t87 -43q51 0 109.5 31.5t107.5 117.5l72 361 q-25 51 -62.5 73.5t-72.5 22.5q-53 0 -102.5 -33t-87.5 -90t-60.5 -135t-22.5 -170zM452 1479h260l115 -305h-193z" />
<glyph unicode="&#xe1;" horiz-adv-x="1130" d="M63 348q0 145 45.5 271t121 220.5t174 147.5t202.5 53q70 0 131.5 -35.5t89.5 -97.5h4l46 109h223l-203 -1016h-227l4 133h-6q-70 -72 -154 -115t-164 -43q-135 0 -211 96.5t-76 276.5zM354 383q0 -92 32 -135t87 -43q51 0 109.5 31.5t107.5 117.5l72 361 q-25 51 -62.5 73.5t-72.5 22.5q-53 0 -102.5 -33t-87.5 -90t-60.5 -135t-22.5 -170zM507 1174l238 305h281l-306 -305h-213z" />
<glyph unicode="&#xe2;" horiz-adv-x="1130" d="M63 348q0 145 45.5 271t121 220.5t174 147.5t202.5 53q70 0 131.5 -35.5t89.5 -97.5h4l46 109h223l-203 -1016h-227l4 133h-6q-70 -72 -154 -115t-164 -43q-135 0 -211 96.5t-76 276.5zM354 383q0 -92 32 -135t87 -43q51 0 109.5 31.5t107.5 117.5l72 361 q-25 51 -62.5 73.5t-72.5 22.5q-53 0 -102.5 -33t-87.5 -90t-60.5 -135t-22.5 -170zM378 1174l250 305h219l129 -305h-180l-76 165h-8l-139 -165h-195z" />
<glyph unicode="&#xe3;" horiz-adv-x="1130" d="M63 348q0 145 45.5 271t121 220.5t174 147.5t202.5 53q70 0 131.5 -35.5t89.5 -97.5h4l46 109h223l-203 -1016h-227l4 133h-6q-70 -72 -154 -115t-164 -43q-135 0 -211 96.5t-76 276.5zM354 383q0 -92 32 -135t87 -43q51 0 109.5 31.5t107.5 117.5l72 361 q-25 51 -62.5 73.5t-72.5 22.5q-53 0 -102.5 -33t-87.5 -90t-60.5 -135t-22.5 -170zM364 1182q37 131 103.5 196.5t138.5 65.5q45 0 75.5 -14.5t55 -32t48 -31.5t54.5 -14q43 0 82 88h148q-37 -129 -103.5 -195.5t-138.5 -66.5q-47 0 -78 14t-55.5 31.5t-48 32t-54.5 14.5 q-45 0 -79 -88h-148z" />
<glyph unicode="&#xe4;" horiz-adv-x="1130" d="M63 348q0 145 45.5 271t121 220.5t174 147.5t202.5 53q70 0 131.5 -35.5t89.5 -97.5h4l46 109h223l-203 -1016h-227l4 133h-6q-70 -72 -154 -115t-164 -43q-135 0 -211 96.5t-76 276.5zM354 383q0 -92 32 -135t87 -43q51 0 109.5 31.5t107.5 117.5l72 361 q-25 51 -62.5 73.5t-72.5 22.5q-53 0 -102.5 -33t-87.5 -90t-60.5 -135t-22.5 -170zM370 1292q0 61 44 107.5t110 46.5q51 0 86 -33t35 -90q0 -63 -44 -107.5t-110 -44.5q-51 0 -86 31t-35 90zM761 1292q0 61 43 107.5t109 46.5q53 0 87 -33t34 -90q0 -63 -44 -107.5 t-110 -44.5q-51 0 -85 31t-34 90z" />
<glyph unicode="&#xe5;" horiz-adv-x="1130" d="M63 348q0 145 45.5 271t121 220.5t174 147.5t202.5 53q70 0 131.5 -35.5t89.5 -97.5h4l46 109h223l-203 -1016h-227l4 133h-6q-70 -72 -154 -115t-164 -43q-135 0 -211 96.5t-76 276.5zM354 383q0 -92 32 -135t87 -43q51 0 109.5 31.5t107.5 117.5l72 361 q-25 51 -62.5 73.5t-72.5 22.5q-53 0 -102.5 -33t-87.5 -90t-60.5 -135t-22.5 -170zM493 1304q0 49 17.5 91.5t48 73t72.5 48t91 17.5q90 0 147.5 -48t57.5 -134q0 -49 -17.5 -91.5t-49 -73t-73.5 -48t-91 -17.5q-90 0 -146.5 47t-56.5 135zM628 1311q0 -35 18.5 -57.5 t53.5 -22.5q37 0 63.5 32.5t26.5 79.5q0 33 -18.5 57.5t-53.5 24.5q-37 0 -63.5 -33.5t-26.5 -80.5z" />
<glyph unicode="&#xe6;" horiz-adv-x="1544" d="M45 229q0 111 48 188t133 124t199 68.5t243 25.5q2 12 2 22.5v20.5q0 76 -35 109.5t-103 33.5q-59 0 -123.5 -21.5t-136.5 -56.5l-61 195q90 45 189.5 73.5t201.5 28.5q90 0 153.5 -32.5t96.5 -104.5q66 66 144.5 101.5t156.5 35.5q92 0 154.5 -29.5t102.5 -81.5 t57.5 -121t17.5 -149q0 -37 -6 -72.5t-13.5 -67.5t-16.5 -55.5t-15 -35.5h-557q-10 -121 50 -181.5t158 -60.5q47 0 97.5 22.5t87.5 49.5l100 -176q-59 -43 -147 -75t-199 -32q-109 0 -195 48.5t-127 117.5q-92 -78 -183 -122t-202 -44q-57 0 -107 17.5t-87 51.5t-57.5 80 t-20.5 105zM317 285q0 -45 32 -70t81 -25q45 0 97.5 30t105.5 91q-4 37 -5 73t3 81q-160 -4 -237 -53.5t-77 -126.5zM899 600h348q4 23 6 38t2 38q0 61 -29.5 105t-107.5 44q-63 0 -124.5 -56t-94.5 -169z" />
<glyph unicode="&#xe7;" horiz-adv-x="907" d="M59 393q0 131 46.5 249t127 207t190 140t234.5 51q96 0 165 -38.5t108 -86.5l-156 -165q-31 33 -61.5 49t-73.5 16q-61 0 -114.5 -32.5t-93.5 -90t-62.5 -132.5t-22.5 -161q0 -92 43 -145t129 -53q53 0 91 20.5t71 44.5l117 -172q-57 -43 -138 -81t-202 -38 q-84 0 -157 28t-126 82t-84 132t-31 176zM149 -338q78 8 131.5 32.5t53.5 69.5q0 25 -19.5 44.5t-74.5 35.5l110 164h164l-61 -100q39 -16 64.5 -44t25.5 -77q0 -59 -32 -102t-85 -72t-123 -44t-145 -20z" />
<glyph unicode="&#xe8;" horiz-adv-x="1015" d="M59 410q0 141 50.5 256.5t131.5 198.5t181 129t203 46q90 0 153.5 -29.5t103.5 -81.5t57 -121t17 -149q0 -37 -6 -72.5t-14 -67.5t-17.5 -55.5t-15.5 -35.5h-577q-6 -127 60.5 -184.5t166.5 -57.5q47 0 98 22.5t90 49.5l99 -176q-61 -43 -153.5 -75t-211.5 -32 q-92 0 -169 30t-131 86t-85 136.5t-31 182.5zM348 600h369q10 35 10 76q0 61 -29.5 105t-107.5 44q-72 0 -139.5 -56t-102.5 -169zM432 1479h260l115 -305h-193z" />
<glyph unicode="&#xe9;" horiz-adv-x="1015" d="M59 410q0 141 50.5 256.5t131.5 198.5t181 129t203 46q90 0 153.5 -29.5t103.5 -81.5t57 -121t17 -149q0 -37 -6 -72.5t-14 -67.5t-17.5 -55.5t-15.5 -35.5h-577q-6 -127 60.5 -184.5t166.5 -57.5q47 0 98 22.5t90 49.5l99 -176q-61 -43 -153.5 -75t-211.5 -32 q-92 0 -169 30t-131 86t-85 136.5t-31 182.5zM348 600h369q10 35 10 76q0 61 -29.5 105t-107.5 44q-72 0 -139.5 -56t-102.5 -169zM487 1174l238 305h281l-306 -305h-213z" />
<glyph unicode="&#xea;" horiz-adv-x="1015" d="M59 410q0 141 50.5 256.5t131.5 198.5t181 129t203 46q90 0 153.5 -29.5t103.5 -81.5t57 -121t17 -149q0 -37 -6 -72.5t-14 -67.5t-17.5 -55.5t-15.5 -35.5h-577q-6 -127 60.5 -184.5t166.5 -57.5q47 0 98 22.5t90 49.5l99 -176q-61 -43 -153.5 -75t-211.5 -32 q-92 0 -169 30t-131 86t-85 136.5t-31 182.5zM348 600h369q10 35 10 76q0 61 -29.5 105t-107.5 44q-72 0 -139.5 -56t-102.5 -169zM358 1174l250 305h219l129 -305h-180l-76 165h-8l-139 -165h-195z" />
<glyph unicode="&#xeb;" horiz-adv-x="1015" d="M59 410q0 141 50.5 256.5t131.5 198.5t181 129t203 46q90 0 153.5 -29.5t103.5 -81.5t57 -121t17 -149q0 -37 -6 -72.5t-14 -67.5t-17.5 -55.5t-15.5 -35.5h-577q-6 -127 60.5 -184.5t166.5 -57.5q47 0 98 22.5t90 49.5l99 -176q-61 -43 -153.5 -75t-211.5 -32 q-92 0 -169 30t-131 86t-85 136.5t-31 182.5zM348 600h369q10 35 10 76q0 61 -29.5 105t-107.5 44q-72 0 -139.5 -56t-102.5 -169zM350 1292q0 61 44 107.5t110 46.5q51 0 86 -33t35 -90q0 -63 -44 -107.5t-110 -44.5q-51 0 -86 31t-35 90zM741 1292q0 61 43 107.5t109 46.5 q53 0 87 -33t34 -90q0 -63 -44 -107.5t-110 -44.5q-51 0 -85 31t-34 90z" />
<glyph unicode="&#xec;" horiz-adv-x="542" d="M29 0l204 1016h279l-203 -1016h-280zM170 1479h260l115 -305h-193z" />
<glyph unicode="&#xed;" horiz-adv-x="542" d="M29 0l204 1016h279l-203 -1016h-280zM225 1174l238 305h281l-306 -305h-213z" />
<glyph unicode="&#xee;" horiz-adv-x="542" d="M29 0l204 1016h279l-203 -1016h-280zM96 1174l250 305h219l129 -305h-180l-76 165h-8l-139 -165h-195z" />
<glyph unicode="&#xef;" horiz-adv-x="542" d="M29 0l204 1016h279l-203 -1016h-280zM88 1292q0 61 44 107.5t110 46.5q51 0 86 -33t35 -90q0 -63 -44 -107.5t-110 -44.5q-51 0 -86 31t-35 90zM479 1292q0 61 43 107.5t109 46.5q53 0 87 -33t34 -90q0 -63 -44 -107.5t-110 -44.5q-51 0 -85 31t-34 90z" />
<glyph unicode="&#xf0;" horiz-adv-x="1099" d="M70 373q0 100 30.5 200.5t91 180.5t147.5 129t200 49q61 0 116.5 -27.5t89.5 -83.5q-14 166 -94 291l-297 -119l-53 133l254 103q-72 68 -164 125l129 162q76 -41 142.5 -89.5t119.5 -107.5l297 119l54 -133l-256 -103q66 -98 100.5 -216t34.5 -257t-34 -274.5 t-103.5 -242t-173 -172t-244.5 -65.5q-80 0 -150.5 28t-123 80t-83 125t-30.5 165zM322 395q0 -82 40.5 -138t120.5 -56q55 0 99.5 30.5t78 86t56 130t31.5 164.5q-29 43 -72 75t-103 32q-61 0 -108 -28.5t-79 -75t-48 -104.5t-16 -116z" />
<glyph unicode="&#xf1;" horiz-adv-x="1130" d="M29 0l200 1016h228l-4 -135h8q76 66 160 112.5t182 46.5q127 0 184 -66.5t57 -193.5q0 -35 -4 -70.5t-12 -74.5l-127 -635h-280l120 600q6 31 11.5 53.5t5.5 42.5q0 104 -105 105q-47 0 -97 -32t-116 -99l-131 -670h-280zM422 1182q37 131 103.5 196.5t138.5 65.5 q45 0 75.5 -14.5t55 -32t48 -31.5t54.5 -14q43 0 82 88h148q-37 -129 -103.5 -195.5t-138.5 -66.5q-47 0 -78 14t-55.5 31.5t-48 32t-54.5 14.5q-45 0 -79 -88h-148z" />
<glyph unicode="&#xf2;" horiz-adv-x="1091" d="M61 393q0 147 49.5 267t130.5 204t183 130t207 46q88 0 160.5 -29.5t124 -85t80 -132t28.5 -170.5q0 -147 -49 -267t-130 -204t-183.5 -130.5t-206.5 -46.5q-90 0 -162 30t-124 85t-80 132t-28 171zM344 399q0 -92 35 -145t106 -53q51 0 97.5 31.5t82 87t56 131 t20.5 165.5q0 94 -35.5 146.5t-107.5 52.5q-51 0 -97 -31.5t-81 -87t-55.5 -132.5t-20.5 -165zM452 1479h260l115 -305h-193z" />
<glyph unicode="&#xf3;" horiz-adv-x="1091" d="M61 393q0 147 49.5 267t130.5 204t183 130t207 46q88 0 160.5 -29.5t124 -85t80 -132t28.5 -170.5q0 -147 -49 -267t-130 -204t-183.5 -130.5t-206.5 -46.5q-90 0 -162 30t-124 85t-80 132t-28 171zM344 399q0 -92 35 -145t106 -53q51 0 97.5 31.5t82 87t56 131 t20.5 165.5q0 94 -35.5 146.5t-107.5 52.5q-51 0 -97 -31.5t-81 -87t-55.5 -132.5t-20.5 -165zM507 1174l238 305h281l-306 -305h-213z" />
<glyph unicode="&#xf4;" horiz-adv-x="1091" d="M61 393q0 147 49.5 267t130.5 204t183 130t207 46q88 0 160.5 -29.5t124 -85t80 -132t28.5 -170.5q0 -147 -49 -267t-130 -204t-183.5 -130.5t-206.5 -46.5q-90 0 -162 30t-124 85t-80 132t-28 171zM344 399q0 -92 35 -145t106 -53q51 0 97.5 31.5t82 87t56 131 t20.5 165.5q0 94 -35.5 146.5t-107.5 52.5q-51 0 -97 -31.5t-81 -87t-55.5 -132.5t-20.5 -165zM378 1174l250 305h219l129 -305h-180l-76 165h-8l-139 -165h-195z" />
<glyph unicode="&#xf5;" horiz-adv-x="1091" d="M61 393q0 147 49.5 267t130.5 204t183 130t207 46q88 0 160.5 -29.5t124 -85t80 -132t28.5 -170.5q0 -147 -49 -267t-130 -204t-183.5 -130.5t-206.5 -46.5q-90 0 -162 30t-124 85t-80 132t-28 171zM344 399q0 -92 35 -145t106 -53q51 0 97.5 31.5t82 87t56 131 t20.5 165.5q0 94 -35.5 146.5t-107.5 52.5q-51 0 -97 -31.5t-81 -87t-55.5 -132.5t-20.5 -165zM364 1182q37 131 103.5 196.5t138.5 65.5q45 0 75.5 -14.5t55 -32t48 -31.5t54.5 -14q43 0 82 88h148q-37 -129 -103.5 -195.5t-138.5 -66.5q-47 0 -78 14t-55.5 31.5t-48 32 t-54.5 14.5q-45 0 -79 -88h-148z" />
<glyph unicode="&#xf6;" horiz-adv-x="1091" d="M61 393q0 147 49.5 267t130.5 204t183 130t207 46q88 0 160.5 -29.5t124 -85t80 -132t28.5 -170.5q0 -147 -49 -267t-130 -204t-183.5 -130.5t-206.5 -46.5q-90 0 -162 30t-124 85t-80 132t-28 171zM344 399q0 -92 35 -145t106 -53q51 0 97.5 31.5t82 87t56 131 t20.5 165.5q0 94 -35.5 146.5t-107.5 52.5q-51 0 -97 -31.5t-81 -87t-55.5 -132.5t-20.5 -165zM370 1292q0 61 44 107.5t110 46.5q51 0 86 -33t35 -90q0 -63 -44 -107.5t-110 -44.5q-51 0 -86 31t-35 90zM761 1292q0 61 43 107.5t109 46.5q53 0 87 -33t34 -90 q0 -63 -44 -107.5t-110 -44.5q-51 0 -85 31t-34 90z" />
<glyph unicode="&#xf7;" d="M98 578v198h895v-198h-895zM391 303q0 63 45 106.5t111 43.5t110.5 -43t44.5 -107q0 -66 -44.5 -106.5t-110.5 -40.5t-111 41t-45 106zM391 1049q0 63 45 105t111 42t110.5 -42t44.5 -105q0 -66 -44.5 -109t-110.5 -43t-111 43t-45 109z" />
<glyph unicode="&#xf8;" horiz-adv-x="1091" d="M0 33l121 123q-59 96 -60 237q0 147 49.5 267t130.5 204t183 130t207 46q158 0 262 -92l111 115l90 -80l-125 -129q27 -47 41 -104.5t14 -126.5q0 -147 -49 -267t-130 -205t-183.5 -130.5t-206.5 -45.5q-152 0 -256 88l-111 -114zM324 399q0 -23 2 -32l391 403 q-39 51 -109 51q-68 0 -121 -39t-90 -99t-55 -135t-18 -149zM371 240q39 -45 104 -45q70 0 124 37.5t90 98t54.5 135.5t18.5 146v29z" />
<glyph unicode="&#xf9;" horiz-adv-x="1116" d="M80 238q0 35 4 69.5t12 73.5l127 635h279l-119 -600q-8 -31 -12 -53.5t-4 -43.5q0 -104 102 -104q86 0 203 131l131 670h280l-200 -1016h-228l4 137h-8q-70 -66 -154.5 -114t-177.5 -48q-127 0 -183 67t-56 196zM446 1479h260l115 -305h-193z" />
<glyph unicode="&#xfa;" horiz-adv-x="1116" d="M80 238q0 35 4 69.5t12 73.5l127 635h279l-119 -600q-8 -31 -12 -53.5t-4 -43.5q0 -104 102 -104q86 0 203 131l131 670h280l-200 -1016h-228l4 137h-8q-70 -66 -154.5 -114t-177.5 -48q-127 0 -183 67t-56 196zM501 1174l238 305h281l-306 -305h-213z" />
<glyph unicode="&#xfb;" horiz-adv-x="1116" d="M80 238q0 35 4 69.5t12 73.5l127 635h279l-119 -600q-8 -31 -12 -53.5t-4 -43.5q0 -104 102 -104q86 0 203 131l131 670h280l-200 -1016h-228l4 137h-8q-70 -66 -154.5 -114t-177.5 -48q-127 0 -183 67t-56 196zM372 1174l250 305h219l129 -305h-180l-76 165h-8 l-139 -165h-195z" />
<glyph unicode="&#xfc;" horiz-adv-x="1116" d="M80 238q0 35 4 69.5t12 73.5l127 635h279l-119 -600q-8 -31 -12 -53.5t-4 -43.5q0 -104 102 -104q86 0 203 131l131 670h280l-200 -1016h-228l4 137h-8q-70 -66 -154.5 -114t-177.5 -48q-127 0 -183 67t-56 196zM364 1292q0 61 44 107.5t110 46.5q51 0 86 -33t35 -90 q0 -63 -44 -107.5t-110 -44.5q-51 0 -86 31t-35 90zM755 1292q0 61 43 107.5t109 46.5q53 0 87 -33t34 -90q0 -63 -44 -107.5t-110 -44.5q-51 0 -85 31t-34 90z" />
<glyph unicode="&#xfd;" horiz-adv-x="1021" d="M-72 -356l86 200q35 -20 76 -20q55 0 106.5 40t86.5 107l24 52l-176 993h279l47 -459q8 -66 12 -149.5t6 -155.5h8q33 72 68 153.5t67 151.5l213 459h273l-549 -1039q-53 -92 -105.5 -161.5t-109.5 -116.5t-122.5 -71.5t-143.5 -24.5q-29 0 -72 12t-74 29zM440 1174 l238 305h281l-306 -305h-213z" />
<glyph unicode="&#xfe;" horiz-adv-x="1132" d="M-47 -377l364 1813h281l-68 -326l-51 -190h4q68 55 143.5 87.5t151.5 32.5q135 0 211 -96t76 -276q0 -145 -45 -271.5t-121 -220.5t-173.5 -147.5t-201.5 -53.5q-66 0 -119 32t-88 89h-4l-28 -198l-52 -275h-280zM371 299q23 -49 58.5 -71.5t74.5 -22.5q53 0 102 32.5 t87 90t60.5 135.5t22.5 170t-33 135t-86 43q-47 0 -105 -27.5t-103 -99.5z" />
<glyph unicode="&#xff;" horiz-adv-x="1021" d="M-72 -356l86 200q35 -20 76 -20q55 0 106.5 40t86.5 107l24 52l-176 993h279l47 -459q8 -66 12 -149.5t6 -155.5h8q33 72 68 153.5t67 151.5l213 459h273l-549 -1039q-53 -92 -105.5 -161.5t-109.5 -116.5t-122.5 -71.5t-143.5 -24.5q-29 0 -72 12t-74 29zM303 1292 q0 61 44 107.5t110 46.5q51 0 86 -33t35 -90q0 -63 -44 -107.5t-110 -44.5q-51 0 -86 31t-35 90zM694 1292q0 61 43 107.5t109 46.5q53 0 87 -33t34 -90q0 -63 -44 -107.5t-110 -44.5q-51 0 -85 31t-34 90z" />
<glyph unicode="&#x152;" horiz-adv-x="1705" d="M117 524q0 197 54 348.5t152.5 255t233.5 155.5t295 52h893l-47 -235h-488l-57 -291h412l-47 -236h-410l-70 -337h506l-47 -236h-790q-281 0 -435.5 129t-154.5 395zM403 543q0 -166 85 -242t227 -76h43l176 885h-76q-96 0 -179 -34t-144.5 -103.5t-96.5 -177t-35 -252.5 z" />
<glyph unicode="&#x153;" horiz-adv-x="1634" d="M61 393q0 147 48.5 267t127 204t177 130t198.5 46q113 0 180.5 -50t108.5 -144q72 94 162 144t178 50q92 0 154.5 -29.5t102.5 -81.5t57.5 -121t17.5 -149q0 -37 -6 -72.5t-13.5 -67.5t-16.5 -55.5t-15 -35.5h-555q-4 -127 55 -184.5t149 -57.5q47 0 98.5 22.5t88.5 49.5 l100 -176q-61 -43 -153.5 -75t-210.5 -32q-98 0 -174 52.5t-117 150.5q-72 -98 -168.5 -150.5t-196.5 -52.5q-86 0 -155.5 30t-118.5 85t-76 132t-27 171zM344 399q0 -92 35 -145t106 -53q47 0 90 31.5t76 87t52.5 131t19.5 165.5q0 94 -34.5 146.5t-106.5 52.5 q-45 0 -87 -31.5t-76 -87t-54.5 -132.5t-20.5 -165zM989 600h346q4 16 6 34.5t2 41.5q0 61 -29.5 105t-105.5 44q-66 0 -127 -56t-92 -169z" />
<glyph unicode="&#x178;" d="M164 1335h291l57 -321q14 -76 25.5 -145.5t25.5 -147.5h8q41 78 80 148.5t84 148.5l187 317h301l-566 -852l-96 -483h-278l94 483zM375 1554q0 27 11 54.5t31.5 50t48.5 36t60 13.5q47 0 82 -30.5t35 -86.5q0 -57 -41.5 -106t-107.5 -49q-51 0 -85 31.5t-34 86.5z M766 1554q0 27 11 54.5t30.5 50t47.5 36t60 13.5q47 0 82 -30.5t35 -86.5q0 -57 -41.5 -106t-107.5 -49q-49 0 -83 31.5t-34 86.5z" />
<glyph unicode="&#x2c6;" horiz-adv-x="1093" d="M381 1174l250 305h219l129 -305h-180l-76 165h-8l-139 -165h-195z" />
<glyph unicode="&#x2dc;" horiz-adv-x="1093" d="M367 1182q37 131 103.5 196.5t138.5 65.5q45 0 75.5 -14.5t55 -32t48 -31.5t54.5 -14q43 0 82 88h148q-37 -129 -103.5 -195.5t-138.5 -66.5q-47 0 -78 14t-55.5 31.5t-48 32t-54.5 14.5q-45 0 -79 -88h-148z" />
<glyph unicode="&#x2000;" horiz-adv-x="913" />
<glyph unicode="&#x2001;" horiz-adv-x="1827" />
<glyph unicode="&#x2002;" horiz-adv-x="913" />
<glyph unicode="&#x2003;" horiz-adv-x="1827" />
<glyph unicode="&#x2004;" horiz-adv-x="609" />
<glyph unicode="&#x2005;" horiz-adv-x="456" />
<glyph unicode="&#x2006;" horiz-adv-x="304" />
<glyph unicode="&#x2007;" horiz-adv-x="304" />
<glyph unicode="&#x2008;" horiz-adv-x="228" />
<glyph unicode="&#x2009;" horiz-adv-x="365" />
<glyph unicode="&#x200a;" horiz-adv-x="101" />
<glyph unicode="&#x2010;" horiz-adv-x="655" d="M68 420l43 198h479l-43 -198h-479z" />
<glyph unicode="&#x2011;" horiz-adv-x="655" d="M68 420l43 198h479l-43 -198h-479z" />
<glyph unicode="&#x2012;" horiz-adv-x="655" d="M68 420l43 198h479l-43 -198h-479z" />
<glyph unicode="&#x2013;" horiz-adv-x="950" d="M70 426l36 182h773l-37 -182h-772z" />
<glyph unicode="&#x2014;" horiz-adv-x="1579" d="M70 426l36 182h1403l-36 -182h-1403z" />
<glyph unicode="&#x2018;" horiz-adv-x="595" d="M199 924q0 92 28.5 167.5t76.5 134t111.5 98.5t135.5 62l45 -120q-55 -23 -99 -53.5t-73 -64.5t-45.5 -66.5t-16.5 -57.5h11q63 0 105 -34t42 -95q0 -66 -46 -117t-124 -51q-70 0 -110.5 51t-40.5 146z" />
<glyph unicode="&#x2019;" horiz-adv-x="595" d="M219 889q57 20 100 52t73 65.5t46.5 66.5t16.5 57h-13q-63 0 -104 34t-41 96q0 66 46 116.5t124 50.5q70 0 110.5 -52t40.5 -146q0 -92 -28.5 -167t-76.5 -133.5t-112.5 -99.5t-136.5 -63z" />
<glyph unicode="&#x201a;" horiz-adv-x="595" d="M4 -201q57 20 100 52t73 65.5t46.5 66.5t16.5 57h-13q-63 0 -104 34t-41 96q0 66 46 116.5t124 50.5q70 0 110.5 -52t40.5 -146q0 -92 -28.5 -167t-76.5 -133.5t-112.5 -99.5t-136.5 -63z" />
<glyph unicode="&#x201c;" horiz-adv-x="1044" d="M199 924q0 92 28.5 167.5t76.5 134t111.5 98.5t135.5 62l45 -120q-55 -23 -99 -53.5t-73 -64.5t-45.5 -66.5t-16.5 -57.5h11q63 0 105 -34t42 -95q0 -66 -46 -117t-124 -51q-70 0 -110.5 51t-40.5 146zM648 924q0 92 28.5 167.5t76.5 134t111.5 98.5t135.5 62l45 -120 q-55 -23 -99 -53.5t-73 -64.5t-45.5 -66.5t-16.5 -57.5h11q63 0 105 -34t42 -95q0 -66 -46 -117t-124 -51q-70 0 -110.5 51t-40.5 146z" />
<glyph unicode="&#x201d;" horiz-adv-x="1044" d="M219 889q57 20 100 52t73 65.5t46.5 66.5t16.5 57h-13q-63 0 -104 34t-41 96q0 66 46 116.5t124 50.5q70 0 110.5 -52t40.5 -146q0 -92 -28.5 -167t-76.5 -133.5t-112.5 -99.5t-136.5 -63zM668 889q57 20 100 52t73 65.5t46.5 66.5t16.5 57h-13q-63 0 -104 34t-41 96 q0 66 46 116.5t124 50.5q70 0 110.5 -52t40.5 -146q0 -92 -28.5 -167t-76.5 -133.5t-112.5 -99.5t-136.5 -63z" />
<glyph unicode="&#x201e;" horiz-adv-x="827" d="M4 -201q57 20 100 52t73 65.5t46.5 66.5t16.5 57h-13q-63 0 -104 34t-41 96q0 66 46 116.5t124 50.5q70 0 110.5 -52t40.5 -146q0 -92 -28.5 -167t-76.5 -133.5t-112.5 -99.5t-136.5 -63zM450 -201q57 20 100 52t73 65.5t46.5 66.5t16.5 57h-13q-63 0 -104 34t-41 96 q0 66 46 116.5t124 50.5q70 0 110.5 -52t40.5 -146q0 -92 -28.5 -167t-76.5 -133.5t-112.5 -99.5t-136.5 -63z" />
<glyph unicode="&#x2022;" horiz-adv-x="675" d="M80 506q0 55 20.5 110.5t57.5 99.5t89 71.5t118 27.5q100 0 167.5 -68.5t67.5 -177.5q0 -55 -20.5 -110.5t-57.5 -99.5t-90.5 -71.5t-116.5 -27.5q-102 0 -168.5 68.5t-66.5 177.5z" />
<glyph unicode="&#x2026;" horiz-adv-x="2000" d="M143 127q0 37 14.5 75t41 66.5t63.5 47t82 18.5q66 0 104.5 -44t38.5 -110q0 -39 -14 -75.5t-41 -65.5t-63.5 -46.5t-81.5 -17.5q-66 0 -105 42t-39 110zM799 127q0 37 14.5 75t41 66.5t63.5 47t82 18.5q66 0 104.5 -44t38.5 -110q0 -39 -14 -75.5t-41 -65.5t-63.5 -46.5 t-81.5 -17.5q-66 0 -105 42t-39 110zM1454 127q0 37 14.5 75t41 66.5t63.5 47t82 18.5q66 0 104.5 -44t38.5 -110q0 -39 -14 -75.5t-41 -65.5t-63.5 -46.5t-81.5 -17.5q-66 0 -105 42t-39 110z" />
<glyph unicode="&#x202f;" horiz-adv-x="365" />
<glyph unicode="&#x2039;" horiz-adv-x="557" d="M82 424l37 201l313 284l86 -92l-272 -311l160 -316l-111 -71z" />
<glyph unicode="&#x203a;" horiz-adv-x="557" d="M55 211l273 311l-162 316l113 71l213 -305l-37 -201l-314 -284z" />
<glyph unicode="&#x205f;" horiz-adv-x="456" />
<glyph unicode="&#x20ac;" d="M33 459l28 133l103 8q4 29 7 56.5t9 56.5h-96l29 133l104 8q39 113 100.5 203t139.5 153.5t169 97t189 33.5q115 0 186.5 -56t122.5 -142l-200 -133q-25 51 -56.5 78.5t-81.5 27.5q-98 0 -171.5 -70.5t-116.5 -187.5h428l-29 -145h-438q-4 -27 -8.5 -54.5t-6.5 -56.5h353 l-29 -143h-326q8 -125 60.5 -191.5t144.5 -66.5q51 0 98.5 27.5t90.5 70.5l131 -166q-98 -86 -193.5 -122t-183.5 -36q-195 0 -307.5 124t-122.5 360h-127z" />
<glyph unicode="&#x2122;" horiz-adv-x="1335" d="M147 1221l33 163h529l-33 -163h-170l-94 -480h-183l95 480h-177zM668 741l123 643h208l41 -192l17 -148h8l63 148l121 192h211l-125 -643h-178l43 209l82 254h-8l-211 -368h-90l-70 368h-8l-12 -254l-43 -209h-172z" />
<glyph unicode="&#x25fc;" horiz-adv-x="1013" d="M0 0v1014h1014v-1014h-1014z" />
<glyph unicode="&#xfb01;" horiz-adv-x="1212" d="M74 0l162 797h-132l43 207l134 12l12 67q14 78 45 146.5t79 120t114.5 81t154.5 29.5q59 0 114.5 -14t102.5 -41l-90 -199q-16 10 -43 20.5t-55 10.5q-55 0 -90 -29.5t-52 -113.5l-14 -78h176l-43 -219h-180l-158 -797h-280zM699 0l204 1016h279l-203 -1016h-280z M944 1303q0 33 13.5 63.5t37 53t55.5 35.5t69 13q59 0 105 -34.5t46 -100.5q0 -72 -50 -119t-124 -47q-57 0 -104.5 34t-47.5 102z" />
<glyph unicode="&#xfb02;" horiz-adv-x="1232" d="M74 0l162 797h-132l43 207l134 12l12 67q14 78 45 146.5t79 120t114.5 81t154.5 29.5q59 0 114.5 -14t102.5 -41l-90 -199q-16 10 -43 20.5t-55 10.5q-55 0 -90 -29.5t-52 -113.5l-14 -78h176l-43 -219h-180l-158 -797h-280zM746 174q0 53 14 125l227 1137h281 l-231 -1149q-4 -16 -4.5 -23.5t-0.5 -15.5q0 -27 11.5 -37t27.5 -10h16.5t20.5 4l-8 -207q-27 -10 -63.5 -16.5t-85.5 -6.5q-111 0 -158 53.5t-47 145.5z" />
</font>
</defs>
</svg>
